  0
SECTION
  2
HEADER
  9
$ACADVER
  1
AC1009
  9
$INSBASE
 10
0.0
 20
0.0
 30
0.0
  9
$EXTMIN
 10
-231.479736
 20
43.809872
 30
0.0
  9
$EXTMAX
 10
-177.853088
 20
77.809875
 30
0.0
  9
$LIMMIN
 10
-231.479736
 20
43.809872
  9
$LIMMAX
 10
-177.853088
 20
77.809875
  9
$ORTHOMODE
 70
     1
  9
$REGENMODE
 70
     1
  9
$FILLMODE
 70
     1
  9
$QTEXTMODE
 70
     0
  9
$MIRRTEXT
 70
     1
  9
$DRAGMODE
 70
     0
  9
$LTSCALE
 40
1.0
  9
$OSMODE
 70
     0
  9
$ATTMODE
 70
     1
  9
$TEXTSIZE
 40
0.2
  9
$TRACEWID
 40
0.05
  9
$TEXTSTYLE
  7
STANDARD
  9
$CLAYER
  8
0
  9
$CELTYPE
  6
CONTINUOUS
  9
$CECOLOR
 62
     7
  9
$DIMSCALE
 40
1.0
  9
$DIMASZ
 40
0.18
  9
$DIMEXO
 40
0.0625
  9
$DIMDLI
 40
0.38
  9
$DIMRND
 40
0.0
  9
$DIMDLE
 40
0.0
  9
$DIMEXE
 40
0.18
  9
$DIMTP
 40
0.0
  9
$DIMTM
 40
0.0
  9
$DIMTXT
 40
0.18
  9
$DIMCEN
 40
0.09
  9
$DIMTSZ
 40
0.0
  9
$DIMTOL
 70
     0
  9
$DIMLIM
 70
     0
  9
$DIMTIH
 70
     1
  9
$DIMTOH
 70
     1
  9
$DIMSE1
 70
     0
  9
$DIMSE2
 70
     0
  9
$DIMTAD
 70
     0
  9
$DIMZIN
 70
     0
  9
$DIMBLK
  1

  9
$DIMASO
 70
     0
  9
$DIMSHO
 70
     1
  9
$DIMPOST
  1

  9
$DIMAPOST
  1

  9
$DIMALT
 70
     0
  9
$DIMALTD
 70
     2
  9
$DIMALTF
 40
25.4
  9
$DIMLFAC
 40
1.0
  9
$DIMTOFL
 70
     0
  9
$DIMTVP
 40
0.0
  9
$DIMTIX
 70
     0
  9
$DIMSOXD
 70
     0
  9
$DIMSAH
 70
     0
  9
$DIMBLK1
  1

  9
$DIMBLK2
  1

  9
$DIMSTYLE
  2
STANDARD
  9
$DIMCLRD
 70
     0
  9
$DIMCLRE
 70
     0
  9
$DIMCLRT
 70
     0
  9
$DIMTFAC
 40
1.0
  9
$DIMGAP
 40
0.09
  9
$LUNITS
 70
     5
  9
$LUPREC
 70
     4
  9
$AXISMODE
 70
     0
  9
$AXISUNIT
 10
0.0
 20
0.0
  9
$SKETCHINC
 40
0.1
  9
$FILLETRAD
 40
0.5
  9
$AUNITS
 70
     0
  9
$AUPREC
 70
     0
  9
$MENU
  1
acad
  9
$ELEVATION
 40
0.0
  9
$PELEVATION
 40
0.0
  9
$THICKNESS
 40
0.0
  9
$LIMCHECK
 70
     0
  9
$BLIPMODE
 70
     1
  9
$CHAMFERA
 40
0.0
  9
$CHAMFERB
 40
0.0
  9
$SKPOLY
 70
     0
  9
$TDCREATE
 40
0.000000000
  9
$TDUPDATE
 40
0.000000000
  9
$TDINDWG
 40
0.3029840278
  9
$TDUSRTIMER
 40
0.0000000000
  9
$USRTIMER
 70
     1
  9
$ANGBASE
 50
0.0
  9
$ANGDIR
 70
     0
  9
$PDMODE
 70
     0
  9
$PDSIZE
 40
0.0
  9
$PLINEWID
 40
0.0
  9
$COORDS
 70
     0
  9
$SPLFRAME
 70
     0
  9
$SPLINETYPE
 70
     6
  9
$SPLINESEGS
 70
     8
  9
$ATTDIA
 70
     0
  9
$ATTREQ
 70
     1
  9
$HANDLING
 70
     1
  9
$HANDSEED
  5
690
  9
$SURFTAB1
 70
     6
  9
$SURFTAB2
 70
     6
  9
$SURFTYPE
 70
     6
  9
$SURFU
 70
     6
  9
$SURFV
 70
     6
  9
$UCSNAME
  2

  9
$UCSORG
 10
0.0
 20
0.0
 30
0.0
  9
$UCSXDIR
 10
1.0
 20
0.0
 30
0.0
  9
$UCSYDIR
 10
0.0
 20
1.0
 30
0.0
  9
$PUCSNAME
  2

  9
$PUCSORG
 10
0.0
 20
0.0
 30
0.0
  9
$PUCSXDIR
 10
1.0
 20
0.0
 30
0.0
  9
$PUCSYDIR
 10
0.0
 20
1.0
 30
0.0
  9
$USERI1
 70
     0
  9
$USERI2
 70
     0
  9
$USERI3
 70
     0
  9
$USERI4
 70
     0
  9
$USERI5
 70
     0
  9
$USERR1
 40
0.0
  9
$USERR2
 40
0.0
  9
$USERR3
 40
0.0
  9
$USERR4
 40
0.0
  9
$USERR5
 40
0.0
  9
$WORLDVIEW
 70
     1
  9
$SHADEDGE
 70
     3
  9
$SHADEDIF
 70
    70
  9
$TILEMODE
 70
     1
  9
$MAXACTVP
 70
    16
  9
$PINSBASE
 10
0.0
 20
0.0
 30
0.0
  9
$PLIMCHECK
 70
     0
  9
$PEXTMIN
 10
0.0
 20
0.0
 30
0.0
  9
$PEXTMAX
 10
0.0
 20
0.0
 30
0.0
  9
$PLIMMIN
 10
0.0
 20
0.0
  9
$PLIMMAX
 10
0.0
 20
0.0
  9
$UNITMODE
 70
     0
  9
$VISRETAIN
 70
     0
  9
$PLINEGEN
 70
     1
  9
$PSLTSCALE
 70
     1
  9
$TREEDEPTH
 70
  3020
  9
$DWGCODEPAGE
  3
ansi_1252
  0
ENDSEC
  0
SECTION
  2
TABLES
  0
TABLE
  2
VPORT
 70
     1
  0
VPORT
  2
*ACTIVE
 70
     0
 10
0.0
 20
0.0
 11
1.0
 21
1.0
 12
-0.000003
 22
0.0
 13
0.0
 23
0.0
 14
0.5
 24
0.5
 15
0.5
 25
0.5
 16
0.0
 26
0.0
 36
1.0
 17
-197.953809
 27
76.188527
 37
3.0
 40
9.612785
 41
1.774908
 42
50.0
 43
0.0
 44
0.0
 50
0.0
 51
0.0
 71
     0
 72
   100
 73
     1
 74
     1
 75
     0
 76
     0
 77
     0
 78
     0
  0
ENDTAB
  0
TABLE
  2
LTYPE
 70
    15
  0
LTYPE
  2
CONTINUOUS
 70
    64
  3
Solid line
 72
    65
 73
     0
 40
0.0
  0
LTYPE
  2
BORDER
 70
     0
  3
BORDER
 72
    65
 73
     6
 40
1.75
 49
0.5
 49
-0.25
 49
0.5
 49
-0.25
 49
0.0
 49
-0.25
  0
LTYPE
  2
CENTER
 70
     0
  3
CENTER
 72
    65
 73
     4
 40
2.0
 49
1.25
 49
-0.25
 49
0.25
 49
-0.25
  0
LTYPE
  2
DASHDOT
 70
     0
  3
DASHDOT
 72
    65
 73
     4
 40
1.0
 49
0.5
 49
-0.25
 49
0.0
 49
-0.25
  0
LTYPE
  2
DASHED
 70
     0
  3
DASHED
 72
    65
 73
     2
 40
0.75
 49
0.5
 49
-0.25
  0
LTYPE
  2
DIVIDE
 70
     0
  3
DIVIDE
 72
    65
 73
     6
 40
1.25
 49
0.5
 49
-0.25
 49
0.0
 49
-0.25
 49
0.0
 49
-0.25
  0
LTYPE
  2
DOT
 70
     0
  3
DOT
 72
    65
 73
     2
 40
0.25
 49
0.0
 49
-0.25
  0
LTYPE
  2
HIDDEN
 70
     0
  3
HIDDEN
 72
    65
 73
     2
 40
0.375
 49
0.25
 49
-0.125
  0
LTYPE
  2
PHANTOM
 70
     0
  3
PHANTOM
 72
    65
 73
     6
 40
2.5
 49
1.25
 49
-0.25
 49
0.25
 49
-0.25
 49
0.25
 49
-0.25
  0
LTYPE
  2
$INVISIBLE
 70
     0
  3
$INVISIBLE
 72
    65
 73
     2
 40
200.0
 49
-100.0
 49
-100.0
  0
LTYPE
  2
HIDDEN2
 70
    64
  3
HIDDEN2
 72
    65
 73
     2
 40
4.7625
 49
3.175
 49
-1.5875
  0
LTYPE
  2
DASHED2
 70
    64
  3
DASHED2
 72
    65
 73
     2
 40
0.375
 49
0.25
 49
-0.125
  0
LTYPE
  2
PHANTOM2
 70
    64
  3
PHANTOM2
 72
    65
 73
     6
 40
1.25
 49
0.625
 49
-0.125
 49
0.125
 49
-0.125
 49
0.125
 49
-0.125
  0
LTYPE
  2
$SNAPEXT
 70
     0
  3
$SNAPEXT
 72
    65
 73
     2
 40
0.04
 49
0.02
 49
-0.02
  0
LTYPE
  2
$AUXILIARY
 70
     0
  3
$AUXILIARY
 72
    65
 73
     2
 40
0.1
 49
0.05
 49
-0.05
  0
ENDTAB
  0
TABLE
  2
LAYER
 70
     2
  0
LAYER
  2
0
 70
     0
 62
     7
  6
CONTINUOUS
  0
LAYER
  2
DEFPOINTS
 70
     0
 62
     7
  6
CONTINUOUS
  0
ENDTAB
  0
TABLE
  2
STYLE
 70
     1
  0
STYLE
  2
STANDARD
 70
    64
 40
0.0
 41
1.0
 50
0.0
 71
     0
 42
0.2
  3
TIMES.SHX
  4

  0
ENDTAB
  0
TABLE
  2
VIEW
 70
     0
  0
VIEW
  2
VIEW_0
 70
     0
 40
8.267716
 10
5.846457
 20
4.133858
 41
11.692913
 11
0.0
 21
0.0
 31
1.0
 12
0.0
 22
0.0
 32
0.0
 42
50.0
 43
0.0
 44
0.0
 50
0.0
 71
     0
  0
ENDTAB
  0
TABLE
  2
UCS
 70
     0
  0
ENDTAB
  0
TABLE
  2
APPID
 70
     2
  0
APPID
  2
ACAD
 70
     0
  0
APPID
  2
TCAD
 70
     0
  0
ENDTAB
  0
TABLE
  2
DIMSTYLE
 70
     1
  0
DIMSTYLE
  2
STANDARD
 70
     0
  3

  4

  5

  6

  7

 40
1.0
 41
0.18
 42
0.0625
 43
0.38
 44
0.18
 45
0.0
 46
0.0
 47
0.0
 48
0.0
 71
     0
 72
     0
 73
     1
 74
     1
 75
     0
 76
     0
 77
     0
 78
     0
140
0.18
141
0.09
142
0.0
143
25.4
144
1.0
145
0.0
146
1.0
147
0.09
170
     0
171
     2
172
     0
173
     0
174
     0
175
     0
176
     0
177
     0
178
     0
  0
ENDTAB
  0
ENDSEC
  0
SECTION
  2
BLOCKS
  0
BLOCK
  8
0
  5
1E2
  2
*D0
 70
     1
 10
0.0
 20
0.0
 30
0.0
  3
*D0
  0
LINE
  8
0
  6
CONTINUOUS
 62
     0
  5
1E3
 10
-229.728393
 20
76.975786
 30
0.0
 11
-230.760337
 21
76.975786
 31
0.0
  0
LINE
  8
0
  6
CONTINUOUS
 62
     0
  5
1E4
 10
-229.727733
 20
71.975786
 30
0.0
 11
-230.760337
 21
71.975786
 31
0.0
  0
POLYLINE
  8
0
  6
CONTINUOUS
 62
     0
  5
1E5
 66
     1
 10
0.0
 20
0.0
 30
0.0
  0
VERTEX
  8
0
  6
CONTINUOUS
 62
     0
  5
1E6
 10
-230.580337
 20
76.795786
 30
0.0
  0
VERTEX
  8
0
  6
CONTINUOUS
 62
     0
  5
1E7
 10
-230.580337
 20
76.795786
 30
0.0
  0
VERTEX
  8
0
  6
CONTINUOUS
 62
     0
  5
1E8
 10
-230.580337
 20
76.795786
 30
0.0
  0
VERTEX
  8
0
  6
CONTINUOUS
 62
     0
  5
1E9
 10
-230.580337
 20
74.655786
 30
0.0
  0
SEQEND
  8
0
  6
CONTINUOUS
 62
     0
  5
1EA
  0
POLYLINE
  8
0
  6
CONTINUOUS
 62
     0
  5
1EB
 66
     1
 10
0.0
 20
0.0
 30
0.0
  0
VERTEX
  8
0
  6
CONTINUOUS
 62
     0
  5
1EC
 10
-230.580337
 20
72.155786
 30
0.0
  0
VERTEX
  8
0
  6
CONTINUOUS
 62
     0
  5
1ED
 10
-230.580337
 20
72.155786
 30
0.0
  0
VERTEX
  8
0
  6
CONTINUOUS
 62
     0
  5
1EE
 10
-230.580337
 20
72.155786
 30
0.0
  0
VERTEX
  8
0
  6
CONTINUOUS
 62
     0
  5
1EF
 10
-230.580337
 20
74.295786
 30
0.0
  0
SEQEND
  8
0
  6
CONTINUOUS
 62
     0
  5
1F0
  0
POLYLINE
  8
0
  6
CONTINUOUS
 62
     0
  5
1F2
 66
     1
 10
0.0
 20
0.0
 30
0.0
 70
     1
  0
VERTEX
  8
0
  6
CONTINUOUS
 62
     0
  5
1F3
 10
-230.580337
 20
76.975786
 30
0.0
  0
VERTEX
  8
0
  6
CONTINUOUS
 62
     0
  5
1F4
 10
-230.603737
 20
76.795786
 30
0.0
  0
VERTEX
  8
0
  6
CONTINUOUS
 62
     0
  5
1F5
 10
-230.556937
 20
76.795786
 30
0.0
  0
SEQEND
  8
0
  6
CONTINUOUS
 62
     0
  5
1F6
  0
POLYLINE
  8
0
  6
CONTINUOUS
 62
     0
  5
1F8
 66
     1
 10
0.0
 20
0.0
 30
0.0
 70
     1
  0
VERTEX
  8
0
  6
CONTINUOUS
 62
     0
  5
1F9
 10
-230.580337
 20
71.975786
 30
0.0
  0
VERTEX
  8
0
  6
CONTINUOUS
 62
     0
  5
1FA
 10
-230.556937
 20
72.155786
 30
0.0
  0
VERTEX
  8
0
  6
CONTINUOUS
 62
     0
  5
1FB
 10
-230.603737
 20
72.155786
 30
0.0
  0
SEQEND
  8
0
  6
CONTINUOUS
 62
     0
  5
1FC
  0
TEXT
  8
0
  6
CONTINUOUS
 62
     0
  5
1FD
 10
-230.753419
 20
74.385786
 30
0.0
 40
0.18
  1
5
 72
     1
 11
-230.685694
 21
74.475786
 31
0.0
 73
     2
  0
TEXT
  8
0
  6
CONTINUOUS
 62
     0
  5
1FE
 10
-230.617969
 20
74.385786
 30
0.0
 40
0.18
  1
in
 11
-230.617969
 21
74.565786
 31
0.0
 73
     3
  0
ENDBLK
  8
0
  5
1FF
  0
BLOCK
  8
0
  5
208
  2
*D1
 70
     1
 10
0.0
 20
0.0
 30
0.0
  3
*D1
  0
LINE
  8
0
  6
CONTINUOUS
 62
     0
  5
209
 10
-202.103611
 20
74.09066
 30
0.0
 11
-202.906176
 21
74.09066
 31
0.0
  0
LINE
  8
0
  6
CONTINUOUS
 62
     0
  5
20A
 10
-202.103611
 20
72.830588
 30
0.0
 11
-202.906176
 21
72.830588
 31
0.0
  0
POLYLINE
  8
0
  6
CONTINUOUS
 62
     0
  5
20B
 66
     1
 10
0.0
 20
0.0
 30
0.0
  0
VERTEX
  8
0
  6
CONTINUOUS
 62
     0
  5
20C
 10
-202.726176
 20
73.91066
 30
0.0
  0
VERTEX
  8
0
  6
CONTINUOUS
 62
     0
  5
20D
 10
-202.726176
 20
73.91066
 30
0.0
  0
VERTEX
  8
0
  6
CONTINUOUS
 62
     0
  5
20E
 10
-202.726176
 20
73.91066
 30
0.0
  0
VERTEX
  8
0
  6
CONTINUOUS
 62
     0
  5
20F
 10
-202.726176
 20
73.640624
 30
0.0
  0
SEQEND
  8
0
  6
CONTINUOUS
 62
     0
  5
210
  0
POLYLINE
  8
0
  6
CONTINUOUS
 62
     0
  5
211
 66
     1
 10
0.0
 20
0.0
 30
0.0
  0
VERTEX
  8
0
  6
CONTINUOUS
 62
     0
  5
212
 10
-202.726176
 20
73.010588
 30
0.0
  0
VERTEX
  8
0
  6
CONTINUOUS
 62
     0
  5
213
 10
-202.726176
 20
73.010588
 30
0.0
  0
VERTEX
  8
0
  6
CONTINUOUS
 62
     0
  5
214
 10
-202.726176
 20
73.010588
 30
0.0
  0
VERTEX
  8
0
  6
CONTINUOUS
 62
     0
  5
215
 10
-202.726176
 20
73.280624
 30
0.0
  0
SEQEND
  8
0
  6
CONTINUOUS
 62
     0
  5
216
  0
POLYLINE
  8
0
  6
CONTINUOUS
 62
     0
  5
218
 66
     1
 10
0.0
 20
0.0
 30
0.0
 70
     1
  0
VERTEX
  8
0
  6
CONTINUOUS
 62
     0
  5
219
 10
-202.726176
 20
74.09066
 30
0.0
  0
VERTEX
  8
0
  6
CONTINUOUS
 62
     0
  5
21A
 10
-202.749576
 20
73.91066
 30
0.0
  0
VERTEX
  8
0
  6
CONTINUOUS
 62
     0
  5
21B
 10
-202.702776
 20
73.91066
 30
0.0
  0
SEQEND
  8
0
  6
CONTINUOUS
 62
     0
  5
21C
  0
POLYLINE
  8
0
  6
CONTINUOUS
 62
     0
  5
21E
 66
     1
 10
0.0
 20
0.0
 30
0.0
 70
     1
  0
VERTEX
  8
0
  6
CONTINUOUS
 62
     0
  5
21F
 10
-202.726176
 20
72.830588
 30
0.0
  0
VERTEX
  8
0
  6
CONTINUOUS
 62
     0
  5
220
 10
-202.702776
 20
73.010588
 30
0.0
  0
VERTEX
  8
0
  6
CONTINUOUS
 62
     0
  5
221
 10
-202.749576
 20
73.010588
 30
0.0
  0
SEQEND
  8
0
  6
CONTINUOUS
 62
     0
  5
222
  0
TEXT
  8
0
  6
CONTINUOUS
 62
     0
  5
223
 10
-203.106202
 20
73.370624
 30
0.0
 40
0.18
  1
1 1/4
 72
     1
 11
-202.831533
 21
73.460624
 31
0.0
 73
     2
  0
TEXT
  8
0
  6
CONTINUOUS
 62
     0
  5
224
 10
-202.556864
 20
73.370624
 30
0.0
 40
0.18
  1
in
 11
-202.556864
 21
73.550624
 31
0.0
 73
     3
  0
ENDBLK
  8
0
  5
225
  0
BLOCK
  8
0
  5
228
  2
*D2
 70
     1
 10
0.0
 20
0.0
 30
0.0
  3
*D2
  0
LINE
  8
0
  6
CONTINUOUS
 62
     0
  5
229
 10
-202.103611
 20
72.830588
 30
0.0
 11
-202.906176
 21
72.830588
 31
0.0
  0
LINE
  8
0
  6
CONTINUOUS
 62
     0
  5
22A
 10
-202.927463
 20
71.347335
 30
0.0
 11
-202.546176
 21
71.347335
 31
0.0
  0
POLYLINE
  8
0
  6
CONTINUOUS
 62
     0
  5
22B
 66
     1
 10
0.0
 20
0.0
 30
0.0
  0
VERTEX
  8
0
  6
CONTINUOUS
 62
     0
  5
22C
 10
-202.726176
 20
72.650588
 30
0.0
  0
VERTEX
  8
0
  6
CONTINUOUS
 62
     0
  5
22D
 10
-202.726176
 20
72.650588
 30
0.0
  0
VERTEX
  8
0
  6
CONTINUOUS
 62
     0
  5
22E
 10
-202.726176
 20
72.650588
 30
0.0
  0
VERTEX
  8
0
  6
CONTINUOUS
 62
     0
  5
22F
 10
-202.726176
 20
72.268962
 30
0.0
  0
SEQEND
  8
0
  6
CONTINUOUS
 62
     0
  5
230
  0
POLYLINE
  8
0
  6
CONTINUOUS
 62
     0
  5
231
 66
     1
 10
0.0
 20
0.0
 30
0.0
  0
VERTEX
  8
0
  6
CONTINUOUS
 62
     0
  5
232
 10
-202.726176
 20
71.527335
 30
0.0
  0
VERTEX
  8
0
  6
CONTINUOUS
 62
     0
  5
233
 10
-202.726176
 20
71.527335
 30
0.0
  0
VERTEX
  8
0
  6
CONTINUOUS
 62
     0
  5
234
 10
-202.726176
 20
71.527335
 30
0.0
  0
VERTEX
  8
0
  6
CONTINUOUS
 62
     0
  5
235
 10
-202.726176
 20
71.908962
 30
0.0
  0
SEQEND
  8
0
  6
CONTINUOUS
 62
     0
  5
236
  0
POLYLINE
  8
0
  6
CONTINUOUS
 62
     0
  5
238
 66
     1
 10
0.0
 20
0.0
 30
0.0
 70
     1
  0
VERTEX
  8
0
  6
CONTINUOUS
 62
     0
  5
239
 10
-202.726176
 20
72.830588
 30
0.0
  0
VERTEX
  8
0
  6
CONTINUOUS
 62
     0
  5
23A
 10
-202.749576
 20
72.650588
 30
0.0
  0
VERTEX
  8
0
  6
CONTINUOUS
 62
     0
  5
23B
 10
-202.702776
 20
72.650588
 30
0.0
  0
SEQEND
  8
0
  6
CONTINUOUS
 62
     0
  5
23C
  0
POLYLINE
  8
0
  6
CONTINUOUS
 62
     0
  5
23E
 66
     1
 10
0.0
 20
0.0
 30
0.0
 70
     1
  0
VERTEX
  8
0
  6
CONTINUOUS
 62
     0
  5
23F
 10
-202.726176
 20
71.347335
 30
0.0
  0
VERTEX
  8
0
  6
CONTINUOUS
 62
     0
  5
240
 10
-202.702776
 20
71.527335
 30
0.0
  0
VERTEX
  8
0
  6
CONTINUOUS
 62
     0
  5
241
 10
-202.749576
 20
71.527335
 30
0.0
  0
SEQEND
  8
0
  6
CONTINUOUS
 62
     0
  5
242
  0
TEXT
  8
0
  6
CONTINUOUS
 62
     0
  5
243
 10
-203.106202
 20
71.998962
 30
0.0
 40
0.18
  1
1 1/2
 72
     1
 11
-202.831533
 21
72.088962
 31
0.0
 73
     2
  0
TEXT
  8
0
  6
CONTINUOUS
 62
     0
  5
244
 10
-202.556864
 20
71.998962
 30
0.0
 40
0.18
  1
in
 11
-202.556864
 21
72.178961
 31
0.0
 73
     3
  0
ENDBLK
  8
0
  5
245
  0
BLOCK
  8
0
  5
248
  2
*D3
 70
     1
 10
0.0
 20
0.0
 30
0.0
  3
*D3
  0
LINE
  8
0
  6
CONTINUOUS
 62
     0
  5
249
 10
-202.927463
 20
71.347335
 30
0.0
 11
-202.546176
 21
71.347335
 31
0.0
  0
LINE
  8
0
  6
CONTINUOUS
 62
     0
  5
24A
 10
-202.927463
 20
69.603252
 30
0.0
 11
-202.546176
 21
69.603252
 31
0.0
  0
POLYLINE
  8
0
  6
CONTINUOUS
 62
     0
  5
24B
 66
     1
 10
0.0
 20
0.0
 30
0.0
  0
VERTEX
  8
0
  6
CONTINUOUS
 62
     0
  5
24C
 10
-202.726176
 20
71.167335
 30
0.0
  0
VERTEX
  8
0
  6
CONTINUOUS
 62
     0
  5
24D
 10
-202.726176
 20
71.167335
 30
0.0
  0
VERTEX
  8
0
  6
CONTINUOUS
 62
     0
  5
24E
 10
-202.726176
 20
71.167335
 30
0.0
  0
VERTEX
  8
0
  6
CONTINUOUS
 62
     0
  5
24F
 10
-202.726176
 20
70.655293
 30
0.0
  0
SEQEND
  8
0
  6
CONTINUOUS
 62
     0
  5
250
  0
POLYLINE
  8
0
  6
CONTINUOUS
 62
     0
  5
251
 66
     1
 10
0.0
 20
0.0
 30
0.0
  0
VERTEX
  8
0
  6
CONTINUOUS
 62
     0
  5
252
 10
-202.726176
 20
69.783252
 30
0.0
  0
VERTEX
  8
0
  6
CONTINUOUS
 62
     0
  5
253
 10
-202.726176
 20
69.783252
 30
0.0
  0
VERTEX
  8
0
  6
CONTINUOUS
 62
     0
  5
254
 10
-202.726176
 20
69.783252
 30
0.0
  0
VERTEX
  8
0
  6
CONTINUOUS
 62
     0
  5
255
 10
-202.726176
 20
70.295293
 30
0.0
  0
SEQEND
  8
0
  6
CONTINUOUS
 62
     0
  5
256
  0
POLYLINE
  8
0
  6
CONTINUOUS
 62
     0
  5
258
 66
     1
 10
0.0
 20
0.0
 30
0.0
 70
     1
  0
VERTEX
  8
0
  6
CONTINUOUS
 62
     0
  5
259
 10
-202.726176
 20
71.347335
 30
0.0
  0
VERTEX
  8
0
  6
CONTINUOUS
 62
     0
  5
25A
 10
-202.749576
 20
71.167335
 30
0.0
  0
VERTEX
  8
0
  6
CONTINUOUS
 62
     0
  5
25B
 10
-202.702776
 20
71.167335
 30
0.0
  0
SEQEND
  8
0
  6
CONTINUOUS
 62
     0
  5
25C
  0
POLYLINE
  8
0
  6
CONTINUOUS
 62
     0
  5
25E
 66
     1
 10
0.0
 20
0.0
 30
0.0
 70
     1
  0
VERTEX
  8
0
  6
CONTINUOUS
 62
     0
  5
25F
 10
-202.726176
 20
69.603252
 30
0.0
  0
VERTEX
  8
0
  6
CONTINUOUS
 62
     0
  5
260
 10
-202.702776
 20
69.783252
 30
0.0
  0
VERTEX
  8
0
  6
CONTINUOUS
 62
     0
  5
261
 10
-202.749576
 20
69.783252
 30
0.0
  0
SEQEND
  8
0
  6
CONTINUOUS
 62
     0
  5
262
  0
TEXT
  8
0
  6
CONTINUOUS
 62
     0
  5
263
 10
-203.106202
 20
70.385294
 30
0.0
 40
0.18
  1
1 3/4
 72
     1
 11
-202.831533
 21
70.475293
 31
0.0
 73
     2
  0
TEXT
  8
0
  6
CONTINUOUS
 62
     0
  5
264
 10
-202.556864
 20
70.385294
 30
0.0
 40
0.18
  1
in
 11
-202.556864
 21
70.565293
 31
0.0
 73
     3
  0
ENDBLK
  8
0
  5
265
  0
BLOCK
  8
0
  5
268
  2
*D4
 70
     1
 10
0.0
 20
0.0
 30
0.0
  3
*D4
  0
LINE
  8
0
  6
CONTINUOUS
 62
     0
  5
269
 10
-202.989963
 20
74.15316
 30
0.0
 11
-202.989963
 21
74.683043
 31
0.0
  0
LINE
  8
0
  6
CONTINUOUS
 62
     0
  5
26A
 10
-202.041111
 20
74.15316
 30
0.0
 11
-202.041111
 21
74.683043
 31
0.0
  0
POLYLINE
  8
0
  6
CONTINUOUS
 62
     0
  5
26B
 66
     1
 10
0.0
 20
0.0
 30
0.0
  0
VERTEX
  8
0
  6
CONTINUOUS
 62
     0
  5
26C
 10
-203.349963
 20
74.503043
 30
0.0
  0
VERTEX
  8
0
  6
CONTINUOUS
 62
     0
  5
26D
 10
-203.169963
 20
74.503043
 30
0.0
  0
SEQEND
  8
0
  6
CONTINUOUS
 62
     0
  5
26E
  0
POLYLINE
  8
0
  6
CONTINUOUS
 62
     0
  5
26F
 66
     1
 10
0.0
 20
0.0
 30
0.0
  0
VERTEX
  8
0
  6
CONTINUOUS
 62
     0
  5
270
 10
-203.169963
 20
74.503043
 30
0.0
  0
VERTEX
  8
0
  6
CONTINUOUS
 62
     0
  5
271
 10
-203.169963
 20
74.503043
 30
0.0
  0
SEQEND
  8
0
  6
CONTINUOUS
 62
     0
  5
272
  0
POLYLINE
  8
0
  6
CONTINUOUS
 62
     0
  5
273
 66
     1
 10
0.0
 20
0.0
 30
0.0
  0
VERTEX
  8
0
  6
CONTINUOUS
 62
     0
  5
274
 10
-201.501111
 20
74.503043
 30
0.0
  0
VERTEX
  8
0
  6
CONTINUOUS
 62
     0
  5
275
 10
-201.681111
 20
74.503043
 30
0.0
  0
VERTEX
  8
0
  6
CONTINUOUS
 62
     0
  5
276
 10
-201.861111
 20
74.503043
 30
0.0
  0
VERTEX
  8
0
  6
CONTINUOUS
 62
     0
  5
277
 10
-201.861111
 20
74.503043
 30
0.0
  0
SEQEND
  8
0
  6
CONTINUOUS
 62
     0
  5
278
  0
POLYLINE
  8
0
  6
CONTINUOUS
 62
     0
  5
27A
 66
     1
 10
0.0
 20
0.0
 30
0.0
 70
     1
  0
VERTEX
  8
0
  6
CONTINUOUS
 62
     0
  5
27B
 10
-202.041111
 20
74.503043
 30
0.0
  0
VERTEX
  8
0
  6
CONTINUOUS
 62
     0
  5
27C
 10
-201.861111
 20
74.479643
 30
0.0
  0
VERTEX
  8
0
  6
CONTINUOUS
 62
     0
  5
27D
 10
-201.861111
 20
74.526443
 30
0.0
  0
SEQEND
  8
0
  6
CONTINUOUS
 62
     0
  5
27E
  0
POLYLINE
  8
0
  6
CONTINUOUS
 62
     0
  5
280
 66
     1
 10
0.0
 20
0.0
 30
0.0
 70
     1
  0
VERTEX
  8
0
  6
CONTINUOUS
 62
     0
  5
281
 10
-202.989963
 20
74.503043
 30
0.0
  0
VERTEX
  8
0
  6
CONTINUOUS
 62
     0
  5
282
 10
-203.169963
 20
74.526443
 30
0.0
  0
VERTEX
  8
0
  6
CONTINUOUS
 62
     0
  5
283
 10
-203.169963
 20
74.479643
 30
0.0
  0
SEQEND
  8
0
  6
CONTINUOUS
 62
     0
  5
284
  0
TEXT
  8
0
  6
CONTINUOUS
 62
     0
  5
285
 10
-201.411111
 20
74.413043
 30
0.0
 40
0.18
  1
15/16
 72
     1
 11
-201.102579
 21
74.503043
 31
0.0
 73
     2
  0
TEXT
  8
0
  6
CONTINUOUS
 62
     0
  5
286
 10
-200.794048
 20
74.413043
 30
0.0
 40
0.18
  1
in
 11
-200.794048
 21
74.593043
 31
0.0
 73
     3
  0
ENDBLK
  8
0
  5
287
  0
BLOCK
  8
0
  5
28A
  2
*D5
 70
     1
 10
0.0
 20
0.0
 30
0.0
  3
*D5
  0
LINE
  8
0
  6
CONTINUOUS
 62
     0
  5
28B
 10
-186.20037
 20
53.201534
 30
0.0
 11
-186.20037
 21
52.724643
 31
0.0
  0
LINE
  8
0
  6
CONTINUOUS
 62
     0
  5
28C
 10
-185.21204
 20
53.201534
 30
0.0
 11
-185.21204
 21
52.724643
 31
0.0
  0
POLYLINE
  8
0
  6
CONTINUOUS
 62
     0
  5
28D
 66
     1
 10
0.0
 20
0.0
 30
0.0
  0
VERTEX
  8
0
  6
CONTINUOUS
 62
     0
  5
28E
 10
-186.02037
 20
52.904643
 30
0.0
  0
VERTEX
  8
0
  6
CONTINUOUS
 62
     0
  5
28F
 10
-186.02037
 20
52.904643
 30
0.0
  0
VERTEX
  8
0
  6
CONTINUOUS
 62
     0
  5
290
 10
-186.02037
 20
52.904643
 30
0.0
  0
VERTEX
  8
0
  6
CONTINUOUS
 62
     0
  5
291
 10
-185.909287
 20
52.904643
 30
0.0
  0
SEQEND
  8
0
  6
CONTINUOUS
 62
     0
  5
292
  0
POLYLINE
  8
0
  6
CONTINUOUS
 62
     0
  5
293
 66
     1
 10
0.0
 20
0.0
 30
0.0
  0
VERTEX
  8
0
  6
CONTINUOUS
 62
     0
  5
294
 10
-185.39204
 20
52.904643
 30
0.0
  0
VERTEX
  8
0
  6
CONTINUOUS
 62
     0
  5
295
 10
-185.39204
 20
52.904643
 30
0.0
  0
VERTEX
  8
0
  6
CONTINUOUS
 62
     0
  5
296
 10
-185.39204
 20
52.904643
 30
0.0
  0
VERTEX
  8
0
  6
CONTINUOUS
 62
     0
  5
297
 10
-185.503123
 20
52.904643
 30
0.0
  0
SEQEND
  8
0
  6
CONTINUOUS
 62
     0
  5
298
  0
POLYLINE
  8
0
  6
CONTINUOUS
 62
     0
  5
29A
 66
     1
 10
0.0
 20
0.0
 30
0.0
 70
     1
  0
VERTEX
  8
0
  6
CONTINUOUS
 62
     0
  5
29B
 10
-186.20037
 20
52.904643
 30
0.0
  0
VERTEX
  8
0
  6
CONTINUOUS
 62
     0
  5
29C
 10
-186.02037
 20
52.881243
 30
0.0
  0
VERTEX
  8
0
  6
CONTINUOUS
 62
     0
  5
29D
 10
-186.02037
 20
52.928043
 30
0.0
  0
SEQEND
  8
0
  6
CONTINUOUS
 62
     0
  5
29E
  0
POLYLINE
  8
0
  6
CONTINUOUS
 62
     0
  5
2A0
 66
     1
 10
0.0
 20
0.0
 30
0.0
 70
     1
  0
VERTEX
  8
0
  6
CONTINUOUS
 62
     0
  5
2A1
 10
-185.21204
 20
52.904643
 30
0.0
  0
VERTEX
  8
0
  6
CONTINUOUS
 62
     0
  5
2A2
 10
-185.39204
 20
52.928043
 30
0.0
  0
VERTEX
  8
0
  6
CONTINUOUS
 62
     0
  5
2A3
 10
-185.39204
 20
52.881243
 30
0.0
  0
SEQEND
  8
0
  6
CONTINUOUS
 62
     0
  5
2A4
  0
TEXT
  8
0
  6
CONTINUOUS
 62
     0
  5
2A5
 10
-185.879287
 20
52.814643
 30
0.0
 40
0.18
  1
1
 72
     1
 11
-185.811562
 21
52.904643
 31
0.0
 73
     2
  0
TEXT
  8
0
  6
CONTINUOUS
 62
     0
  5
2A6
 10
-185.743837
 20
52.814643
 30
0.0
 40
0.18
  1
in
 11
-185.743837
 21
52.994643
 31
0.0
 73
     3
  0
ENDBLK
  8
0
  5
2A7
  0
BLOCK
  8
0
  5
2AA
  2
*D6
 70
     1
 10
0.0
 20
0.0
 30
0.0
  3
*D6
  0
LINE
  8
0
  6
CONTINUOUS
 62
     0
  5
2AB
 10
-184.41085
 20
52.264036
 30
0.0
 11
-184.036865
 21
52.264036
 31
0.0
  0
LINE
  8
0
  6
CONTINUOUS
 62
     0
  5
2AC
 10
-184.216865
 20
53.264034
 30
0.0
 11
-184.216865
 21
53.264034
 31
0.0
  0
POLYLINE
  8
0
  6
CONTINUOUS
 62
     0
  5
2AD
 66
     1
 10
0.0
 20
0.0
 30
0.0
  0
VERTEX
  8
0
  6
CONTINUOUS
 62
     0
  5
2AE
 10
-184.216865
 20
52.444036
 30
0.0
  0
VERTEX
  8
0
  6
CONTINUOUS
 62
     0
  5
2AF
 10
-184.216865
 20
52.444036
 30
0.0
  0
VERTEX
  8
0
  6
CONTINUOUS
 62
     0
  5
2B0
 10
-184.216865
 20
52.444036
 30
0.0
  0
VERTEX
  8
0
  6
CONTINUOUS
 62
     0
  5
2B1
 10
-184.216865
 20
52.584035
 30
0.0
  0
SEQEND
  8
0
  6
CONTINUOUS
 62
     0
  5
2B2
  0
POLYLINE
  8
0
  6
CONTINUOUS
 62
     0
  5
2B3
 66
     1
 10
0.0
 20
0.0
 30
0.0
  0
VERTEX
  8
0
  6
CONTINUOUS
 62
     0
  5
2B4
 10
-184.216865
 20
53.084034
 30
0.0
  0
VERTEX
  8
0
  6
CONTINUOUS
 62
     0
  5
2B5
 10
-184.216865
 20
53.084034
 30
0.0
  0
VERTEX
  8
0
  6
CONTINUOUS
 62
     0
  5
2B6
 10
-184.216865
 20
53.084034
 30
0.0
  0
VERTEX
  8
0
  6
CONTINUOUS
 62
     0
  5
2B7
 10
-184.216865
 20
52.944035
 30
0.0
  0
SEQEND
  8
0
  6
CONTINUOUS
 62
     0
  5
2B8
  0
POLYLINE
  8
0
  6
CONTINUOUS
 62
     0
  5
2BA
 66
     1
 10
0.0
 20
0.0
 30
0.0
 70
     1
  0
VERTEX
  8
0
  6
CONTINUOUS
 62
     0
  5
2BB
 10
-184.216865
 20
52.264036
 30
0.0
  0
VERTEX
  8
0
  6
CONTINUOUS
 62
     0
  5
2BC
 10
-184.193465
 20
52.444036
 30
0.0
  0
VERTEX
  8
0
  6
CONTINUOUS
 62
     0
  5
2BD
 10
-184.240265
 20
52.444036
 30
0.0
  0
SEQEND
  8
0
  6
CONTINUOUS
 62
     0
  5
2BE
  0
POLYLINE
  8
0
  6
CONTINUOUS
 62
     0
  5
2C0
 66
     1
 10
0.0
 20
0.0
 30
0.0
 70
     1
  0
VERTEX
  8
0
  6
CONTINUOUS
 62
     0
  5
2C1
 10
-184.216865
 20
53.264034
 30
0.0
  0
VERTEX
  8
0
  6
CONTINUOUS
 62
     0
  5
2C2
 10
-184.240265
 20
53.084034
 30
0.0
  0
VERTEX
  8
0
  6
CONTINUOUS
 62
     0
  5
2C3
 10
-184.193465
 20
53.084034
 30
0.0
  0
SEQEND
  8
0
  6
CONTINUOUS
 62
     0
  5
2C4
  0
TEXT
  8
0
  6
CONTINUOUS
 62
     0
  5
2C5
 10
-184.052074
 20
53.354034
 30
0.0
 40
0.18
  1
1
 72
     1
 11
-183.984349
 21
53.444034
 31
0.0
 73
     2
  0
TEXT
  8
0
  6
CONTINUOUS
 62
     0
  5
2C6
 10
-183.916624
 20
53.354034
 30
0.0
 40
0.18
  1
in
 11
-183.916624
 21
53.534034
 31
0.0
 73
     3
  0
ENDBLK
  8
0
  5
2C7
  0
BLOCK
  8
0
  5
2CA
  2
*D7
 70
     1
 10
0.0
 20
0.0
 30
0.0
  3
*D7
  0
LINE
  8
0
  6
CONTINUOUS
 62
     0
  5
2CB
 10
-187.130585
 20
51.239429
 30
0.0
 11
-186.681719
 21
51.239429
 31
0.0
  0
LINE
  8
0
  6
CONTINUOUS
 62
     0
  5
2CC
 10
-186.918617
 20
54.239429
 30
0.0
 11
-187.041719
 21
54.239429
 31
0.0
  0
POLYLINE
  8
0
  6
CONTINUOUS
 62
     0
  5
2CD
 66
     1
 10
0.0
 20
0.0
 30
0.0
  0
VERTEX
  8
0
  6
CONTINUOUS
 62
     0
  5
2CE
 10
-186.861719
 20
51.419429
 30
0.0
  0
VERTEX
  8
0
  6
CONTINUOUS
 62
     0
  5
2CF
 10
-186.861719
 20
51.419429
 30
0.0
  0
VERTEX
  8
0
  6
CONTINUOUS
 62
     0
  5
2D0
 10
-186.861719
 20
51.419429
 30
0.0
  0
VERTEX
  8
0
  6
CONTINUOUS
 62
     0
  5
2D1
 10
-186.861719
 20
52.559429
 30
0.0
  0
SEQEND
  8
0
  6
CONTINUOUS
 62
     0
  5
2D2
  0
POLYLINE
  8
0
  6
CONTINUOUS
 62
     0
  5
2D3
 66
     1
 10
0.0
 20
0.0
 30
0.0
  0
VERTEX
  8
0
  6
CONTINUOUS
 62
     0
  5
2D4
 10
-186.861719
 20
54.059429
 30
0.0
  0
VERTEX
  8
0
  6
CONTINUOUS
 62
     0
  5
2D5
 10
-186.861719
 20
54.059429
 30
0.0
  0
VERTEX
  8
0
  6
CONTINUOUS
 62
     0
  5
2D6
 10
-186.861719
 20
54.059429
 30
0.0
  0
VERTEX
  8
0
  6
CONTINUOUS
 62
     0
  5
2D7
 10
-186.861719
 20
52.919429
 30
0.0
  0
SEQEND
  8
0
  6
CONTINUOUS
 62
     0
  5
2D8
  0
POLYLINE
  8
0
  6
CONTINUOUS
 62
     0
  5
2DA
 66
     1
 10
0.0
 20
0.0
 30
0.0
 70
     1
  0
VERTEX
  8
0
  6
CONTINUOUS
 62
     0
  5
2DB
 10
-186.861719
 20
51.239429
 30
0.0
  0
VERTEX
  8
0
  6
CONTINUOUS
 62
     0
  5
2DC
 10
-186.838319
 20
51.419429
 30
0.0
  0
VERTEX
  8
0
  6
CONTINUOUS
 62
     0
  5
2DD
 10
-186.885119
 20
51.419429
 30
0.0
  0
SEQEND
  8
0
  6
CONTINUOUS
 62
     0
  5
2DE
  0
POLYLINE
  8
0
  6
CONTINUOUS
 62
     0
  5
2E0
 66
     1
 10
0.0
 20
0.0
 30
0.0
 70
     1
  0
VERTEX
  8
0
  6
CONTINUOUS
 62
     0
  5
2E1
 10
-186.861719
 20
54.239429
 30
0.0
  0
VERTEX
  8
0
  6
CONTINUOUS
 62
     0
  5
2E2
 10
-186.885119
 20
54.059429
 30
0.0
  0
VERTEX
  8
0
  6
CONTINUOUS
 62
     0
  5
2E3
 10
-186.838319
 20
54.059429
 30
0.0
  0
SEQEND
  8
0
  6
CONTINUOUS
 62
     0
  5
2E4
  0
TEXT
  8
0
  6
CONTINUOUS
 62
     0
  5
2E5
 10
-186.698161
 20
54.329429
 30
0.0
 40
0.18
  1
3
 72
     1
 11
-186.630436
 21
54.419429
 31
0.0
 73
     2
  0
TEXT
  8
0
  6
CONTINUOUS
 62
     0
  5
2E6
 10
-186.562711
 20
54.329429
 30
0.0
 40
0.18
  1
in
 11
-186.562711
 21
54.509429
 31
0.0
 73
     3
  0
ENDBLK
  8
0
  5
2E7
  0
BLOCK
  8
0
  5
2EA
  2
*D8
 70
     1
 10
0.0
 20
0.0
 30
0.0
  3
*D8
  0
LINE
  8
0
  6
CONTINUOUS
 62
     0
  5
2EB
 10
-206.474211
 20
51.376046
 30
0.0
 11
-205.884092
 21
51.376046
 31
0.0
  0
LINE
  8
0
  6
CONTINUOUS
 62
     0
  5
2EC
 10
-206.474211
 20
54.102812
 30
0.0
 11
-205.884092
 21
54.102812
 31
0.0
  0
POLYLINE
  8
0
  6
CONTINUOUS
 62
     0
  5
2ED
 66
     1
 10
0.0
 20
0.0
 30
0.0
  0
VERTEX
  8
0
  6
CONTINUOUS
 62
     0
  5
2EE
 10
-206.064092
 20
51.556046
 30
0.0
  0
VERTEX
  8
0
  6
CONTINUOUS
 62
     0
  5
2EF
 10
-206.064092
 20
51.556046
 30
0.0
  0
VERTEX
  8
0
  6
CONTINUOUS
 62
     0
  5
2F0
 10
-206.064092
 20
51.556046
 30
0.0
  0
VERTEX
  8
0
  6
CONTINUOUS
 62
     0
  5
2F1
 10
-206.064092
 20
52.258261
 30
0.0
  0
SEQEND
  8
0
  6
CONTINUOUS
 62
     0
  5
2F2
  0
POLYLINE
  8
0
  6
CONTINUOUS
 62
     0
  5
2F3
 66
     1
 10
0.0
 20
0.0
 30
0.0
  0
VERTEX
  8
0
  6
CONTINUOUS
 62
     0
  5
2F4
 10
-206.064092
 20
53.922812
 30
0.0
  0
VERTEX
  8
0
  6
CONTINUOUS
 62
     0
  5
2F5
 10
-206.064092
 20
53.922812
 30
0.0
  0
VERTEX
  8
0
  6
CONTINUOUS
 62
     0
  5
2F6
 10
-206.064092
 20
53.922812
 30
0.0
  0
VERTEX
  8
0
  6
CONTINUOUS
 62
     0
  5
2F7
 10
-206.064092
 20
52.919429
 30
0.0
  0
SEQEND
  8
0
  6
CONTINUOUS
 62
     0
  5
2F8
  0
POLYLINE
  8
0
  6
CONTINUOUS
 62
     0
  5
2FA
 66
     1
 10
0.0
 20
0.0
 30
0.0
 70
     1
  0
VERTEX
  8
0
  6
CONTINUOUS
 62
     0
  5
2FB
 10
-206.064092
 20
51.376046
 30
0.0
  0
VERTEX
  8
0
  6
CONTINUOUS
 62
     0
  5
2FC
 10
-206.040692
 20
51.556046
 30
0.0
  0
VERTEX
  8
0
  6
CONTINUOUS
 62
     0
  5
2FD
 10
-206.087492
 20
51.556046
 30
0.0
  0
SEQEND
  8
0
  6
CONTINUOUS
 62
     0
  5
2FE
  0
POLYLINE
  8
0
  6
CONTINUOUS
 62
     0
  5
300
 66
     1
 10
0.0
 20
0.0
 30
0.0
 70
     1
  0
VERTEX
  8
0
  6
CONTINUOUS
 62
     0
  5
301
 10
-206.064092
 20
54.102812
 30
0.0
  0
VERTEX
  8
0
  6
CONTINUOUS
 62
     0
  5
302
 10
-206.087492
 20
53.922812
 30
0.0
  0
VERTEX
  8
0
  6
CONTINUOUS
 62
     0
  5
303
 10
-206.040692
 20
53.922812
 30
0.0
  0
SEQEND
  8
0
  6
CONTINUOUS
 62
     0
  5
304
  0
TEXT
  8
0
  6
CONTINUOUS
 62
     0
  5
305
 10
-206.444118
 20
52.348261
 30
0.0
 40
0.18
  1
2 3/4
 72
     1
 11
-206.169449
 21
52.438261
 31
0.0
 73
     2
  0
TEXT
  8
0
  6
CONTINUOUS
 62
     0
  5
306
 10
-205.89478
 20
52.348261
 30
0.0
 40
0.18
  1
in
 11
-205.89478
 21
52.528261
 31
0.0
 73
     3
  0
ENDBLK
  8
0
  5
307
  0
BLOCK
  8
0
  5
30B
  2
*D9
 70
     1
 10
0.0
 20
0.0
 30
0.0
  3
*D9
  0
LINE
  8
0
  6
CONTINUOUS
 62
     0
  5
30C
 10
-207.123127
 20
52.676929
 30
0.0
 11
-207.123127
 21
43.867437
 31
0.0
  0
LINE
  8
0
  6
CONTINUOUS
 62
     0
  5
30D
 10
-185.21204
 20
52.676929
 30
0.0
 11
-185.21204
 21
43.867437
 31
0.0
  0
POLYLINE
  8
0
  6
CONTINUOUS
 62
     0
  5
30E
 66
     1
 10
0.0
 20
0.0
 30
0.0
  0
VERTEX
  8
0
  6
CONTINUOUS
 62
     0
  5
30F
 10
-206.943127
 20
44.047437
 30
0.0
  0
VERTEX
  8
0
  6
CONTINUOUS
 62
     0
  5
310
 10
-206.943127
 20
44.047437
 30
0.0
  0
VERTEX
  8
0
  6
CONTINUOUS
 62
     0
  5
311
 10
-206.943127
 20
44.047437
 30
0.0
  0
VERTEX
  8
0
  6
CONTINUOUS
 62
     0
  5
312
 10
-196.780785
 20
44.047437
 30
0.0
  0
SEQEND
  8
0
  6
CONTINUOUS
 62
     0
  5
313
  0
POLYLINE
  8
0
  6
CONTINUOUS
 62
     0
  5
314
 66
     1
 10
0.0
 20
0.0
 30
0.0
  0
VERTEX
  8
0
  6
CONTINUOUS
 62
     0
  5
315
 10
-185.39204
 20
44.047437
 30
0.0
  0
VERTEX
  8
0
  6
CONTINUOUS
 62
     0
  5
316
 10
-185.39204
 20
44.047437
 30
0.0
  0
VERTEX
  8
0
  6
CONTINUOUS
 62
     0
  5
317
 10
-185.39204
 20
44.047437
 30
0.0
  0
VERTEX
  8
0
  6
CONTINUOUS
 62
     0
  5
318
 10
-195.554382
 20
44.047437
 30
0.0
  0
SEQEND
  8
0
  6
CONTINUOUS
 62
     0
  5
319
  0
POLYLINE
  8
0
  6
CONTINUOUS
 62
     0
  5
31B
 66
     1
 10
0.0
 20
0.0
 30
0.0
 70
     1
  0
VERTEX
  8
0
  6
CONTINUOUS
 62
     0
  5
31C
 10
-207.123127
 20
44.047437
 30
0.0
  0
VERTEX
  8
0
  6
CONTINUOUS
 62
     0
  5
31D
 10
-206.943127
 20
44.024037
 30
0.0
  0
VERTEX
  8
0
  6
CONTINUOUS
 62
     0
  5
31E
 10
-206.943127
 20
44.070837
 30
0.0
  0
SEQEND
  8
0
  6
CONTINUOUS
 62
     0
  5
31F
  0
POLYLINE
  8
0
  6
CONTINUOUS
 62
     0
  5
321
 66
     1
 10
0.0
 20
0.0
 30
0.0
 70
     1
  0
VERTEX
  8
0
  6
CONTINUOUS
 62
     0
  5
322
 10
-185.21204
 20
44.047437
 30
0.0
  0
VERTEX
  8
0
  6
CONTINUOUS
 62
     0
  5
323
 10
-185.39204
 20
44.070837
 30
0.0
  0
VERTEX
  8
0
  6
CONTINUOUS
 62
     0
  5
324
 10
-185.39204
 20
44.024037
 30
0.0
  0
SEQEND
  8
0
  6
CONTINUOUS
 62
     0
  5
325
  0
TEXT
  8
0
  6
CONTINUOUS
 62
     0
  5
326
 10
-196.750785
 20
43.957437
 30
0.0
 40
0.18
  1
21 15/16
 72
     1
 11
-196.272941
 21
44.047437
 31
0.0
 73
     2
  0
TEXT
  8
0
  6
CONTINUOUS
 62
     0
  5
327
 10
-195.795097
 20
43.957437
 30
0.0
 40
0.18
  1
in
 11
-195.795097
 21
44.137437
 31
0.0
 73
     3
  0
ENDBLK
  8
0
  5
328
  0
BLOCK
  8
0
  5
32B
  2
*D10
 70
     1
 10
0.0
 20
0.0
 30
0.0
  3
*D10
  0
LINE
  8
0
  6
CONTINUOUS
 62
     0
  5
32C
 10
-199.730549
 20
61.392105
 30
0.0
 11
-207.801396
 21
61.392105
 31
0.0
  0
LINE
  8
0
  6
CONTINUOUS
 62
     0
  5
32D
 10
-199.730549
 20
44.085975
 30
0.0
 11
-207.801396
 21
44.085975
 31
0.0
  0
POLYLINE
  8
0
  6
CONTINUOUS
 62
     0
  5
32E
 66
     1
 10
0.0
 20
0.0
 30
0.0
  0
VERTEX
  8
0
  6
CONTINUOUS
 62
     0
  5
32F
 10
-207.621396
 20
61.212105
 30
0.0
  0
VERTEX
  8
0
  6
CONTINUOUS
 62
     0
  5
330
 10
-207.621396
 20
61.212105
 30
0.0
  0
VERTEX
  8
0
  6
CONTINUOUS
 62
     0
  5
331
 10
-207.621396
 20
61.212105
 30
0.0
  0
VERTEX
  8
0
  6
CONTINUOUS
 62
     0
  5
332
 10
-207.621396
 20
52.91904
 30
0.0
  0
SEQEND
  8
0
  6
CONTINUOUS
 62
     0
  5
333
  0
POLYLINE
  8
0
  6
CONTINUOUS
 62
     0
  5
334
 66
     1
 10
0.0
 20
0.0
 30
0.0
  0
VERTEX
  8
0
  6
CONTINUOUS
 62
     0
  5
335
 10
-207.621396
 20
44.265975
 30
0.0
  0
VERTEX
  8
0
  6
CONTINUOUS
 62
     0
  5
336
 10
-207.621396
 20
44.265975
 30
0.0
  0
VERTEX
  8
0
  6
CONTINUOUS
 62
     0
  5
337
 10
-207.621396
 20
44.265975
 30
0.0
  0
VERTEX
  8
0
  6
CONTINUOUS
 62
     0
  5
338
 10
-207.621396
 20
52.55904
 30
0.0
  0
SEQEND
  8
0
  6
CONTINUOUS
 62
     0
  5
339
  0
POLYLINE
  8
0
  6
CONTINUOUS
 62
     0
  5
33B
 66
     1
 10
0.0
 20
0.0
 30
0.0
 70
     1
  0
VERTEX
  8
0
  6
CONTINUOUS
 62
     0
  5
33C
 10
-207.621396
 20
61.392105
 30
0.0
  0
VERTEX
  8
0
  6
CONTINUOUS
 62
     0
  5
33D
 10
-207.644796
 20
61.212105
 30
0.0
  0
VERTEX
  8
0
  6
CONTINUOUS
 62
     0
  5
33E
 10
-207.597996
 20
61.212105
 30
0.0
  0
SEQEND
  8
0
  6
CONTINUOUS
 62
     0
  5
33F
  0
POLYLINE
  8
0
  6
CONTINUOUS
 62
     0
  5
341
 66
     1
 10
0.0
 20
0.0
 30
0.0
 70
     1
  0
VERTEX
  8
0
  6
CONTINUOUS
 62
     0
  5
342
 10
-207.621396
 20
44.085975
 30
0.0
  0
VERTEX
  8
0
  6
CONTINUOUS
 62
     0
  5
343
 10
-207.597996
 20
44.265975
 30
0.0
  0
VERTEX
  8
0
  6
CONTINUOUS
 62
     0
  5
344
 10
-207.644796
 20
44.265975
 30
0.0
  0
SEQEND
  8
0
  6
CONTINUOUS
 62
     0
  5
345
  0
TEXT
  8
0
  6
CONTINUOUS
 62
     0
  5
346
 10
-208.136872
 20
52.64904
 30
0.0
 40
0.18
  1
17 5/16
 72
     1
 11
-207.726753
 21
52.73904
 31
0.0
 73
     2
  0
TEXT
  8
0
  6
CONTINUOUS
 62
     0
  5
347
 10
-207.316634
 20
52.64904
 30
0.0
 40
0.18
  1
in
 11
-207.316634
 21
52.82904
 31
0.0
 73
     3
  0
ENDBLK
  8
0
  5
348
  0
BLOCK
  8
0
  5
34B
  2
*D11
 70
     1
 10
0.0
 20
0.0
 30
0.0
  3
*D11
  0
LINE
  8
0
  6
CONTINUOUS
 62
     0
  5
34C
 10
-213.153207
 20
49.801224
 30
0.0
 11
-211.415383
 21
49.801224
 31
0.0
  0
LINE
  8
0
  6
CONTINUOUS
 62
     0
  5
34D
 10
-212.70003
 20
51.515601
 30
0.0
 11
-211.415383
 21
51.515601
 31
0.0
  0
POLYLINE
  8
0
  6
CONTINUOUS
 62
     0
  5
34E
 66
     1
 10
0.0
 20
0.0
 30
0.0
  0
VERTEX
  8
0
  6
CONTINUOUS
 62
     0
  5
34F
 10
-211.595383
 20
49.981224
 30
0.0
  0
VERTEX
  8
0
  6
CONTINUOUS
 62
     0
  5
350
 10
-211.595383
 20
49.981224
 30
0.0
  0
VERTEX
  8
0
  6
CONTINUOUS
 62
     0
  5
351
 10
-211.595383
 20
49.981224
 30
0.0
  0
VERTEX
  8
0
  6
CONTINUOUS
 62
     0
  5
352
 10
-211.595383
 20
50.478412
 30
0.0
  0
SEQEND
  8
0
  6
CONTINUOUS
 62
     0
  5
353
  0
POLYLINE
  8
0
  6
CONTINUOUS
 62
     0
  5
354
 66
     1
 10
0.0
 20
0.0
 30
0.0
  0
VERTEX
  8
0
  6
CONTINUOUS
 62
     0
  5
355
 10
-211.595383
 20
51.335601
 30
0.0
  0
VERTEX
  8
0
  6
CONTINUOUS
 62
     0
  5
356
 10
-211.595383
 20
51.335601
 30
0.0
  0
VERTEX
  8
0
  6
CONTINUOUS
 62
     0
  5
357
 10
-211.595383
 20
51.335601
 30
0.0
  0
VERTEX
  8
0
  6
CONTINUOUS
 62
     0
  5
358
 10
-211.595383
 20
50.838412
 30
0.0
  0
SEQEND
  8
0
  6
CONTINUOUS
 62
     0
  5
359
  0
POLYLINE
  8
0
  6
CONTINUOUS
 62
     0
  5
35B
 66
     1
 10
0.0
 20
0.0
 30
0.0
 70
     1
  0
VERTEX
  8
0
  6
CONTINUOUS
 62
     0
  5
35C
 10
-211.595383
 20
49.801224
 30
0.0
  0
VERTEX
  8
0
  6
CONTINUOUS
 62
     0
  5
35D
 10
-211.571983
 20
49.981224
 30
0.0
  0
VERTEX
  8
0
  6
CONTINUOUS
 62
     0
  5
35E
 10
-211.618783
 20
49.981224
 30
0.0
  0
SEQEND
  8
0
  6
CONTINUOUS
 62
     0
  5
35F
  0
POLYLINE
  8
0
  6
CONTINUOUS
 62
     0
  5
361
 66
     1
 10
0.0
 20
0.0
 30
0.0
 70
     1
  0
VERTEX
  8
0
  6
CONTINUOUS
 62
     0
  5
362
 10
-211.595383
 20
51.515601
 30
0.0
  0
VERTEX
  8
0
  6
CONTINUOUS
 62
     0
  5
363
 10
-211.618783
 20
51.335601
 30
0.0
  0
VERTEX
  8
0
  6
CONTINUOUS
 62
     0
  5
364
 10
-211.571983
 20
51.335601
 30
0.0
  0
SEQEND
  8
0
  6
CONTINUOUS
 62
     0
  5
365
  0
TEXT
  8
0
  6
CONTINUOUS
 62
     0
  5
366
 10
-212.110859
 20
50.568413
 30
0.0
 40
0.18
  1
1 11/16
 72
     1
 11
-211.70074
 21
50.658412
 31
0.0
 73
     2
  0
TEXT
  8
0
  6
CONTINUOUS
 62
     0
  5
367
 10
-211.290621
 20
50.568413
 30
0.0
 40
0.18
  1
in
 11
-211.290621
 21
50.748412
 31
0.0
 73
     3
  0
ENDBLK
  8
0
  5
368
  0
BLOCK
  8
0
  5
36B
  2
*D12
 70
     1
 10
0.0
 20
0.0
 30
0.0
  3
*D12
  0
LINE
  8
0
  6
CONTINUOUS
 62
     0
  5
36C
 10
-212.70003
 20
51.515601
 30
0.0
 11
-211.415383
 21
51.515601
 31
0.0
  0
LINE
  8
0
  6
CONTINUOUS
 62
     0
  5
36D
 10
-212.918335
 20
53.881478
 30
0.0
 11
-211.415383
 21
53.881478
 31
0.0
  0
POLYLINE
  8
0
  6
CONTINUOUS
 62
     0
  5
36E
 66
     1
 10
0.0
 20
0.0
 30
0.0
  0
VERTEX
  8
0
  6
CONTINUOUS
 62
     0
  5
36F
 10
-211.595383
 20
51.695601
 30
0.0
  0
VERTEX
  8
0
  6
CONTINUOUS
 62
     0
  5
370
 10
-211.595383
 20
51.695601
 30
0.0
  0
VERTEX
  8
0
  6
CONTINUOUS
 62
     0
  5
371
 10
-211.595383
 20
51.695601
 30
0.0
  0
VERTEX
  8
0
  6
CONTINUOUS
 62
     0
  5
372
 10
-211.595383
 20
52.518539
 30
0.0
  0
SEQEND
  8
0
  6
CONTINUOUS
 62
     0
  5
373
  0
POLYLINE
  8
0
  6
CONTINUOUS
 62
     0
  5
374
 66
     1
 10
0.0
 20
0.0
 30
0.0
  0
VERTEX
  8
0
  6
CONTINUOUS
 62
     0
  5
375
 10
-211.595383
 20
53.701478
 30
0.0
  0
VERTEX
  8
0
  6
CONTINUOUS
 62
     0
  5
376
 10
-211.595383
 20
53.701478
 30
0.0
  0
VERTEX
  8
0
  6
CONTINUOUS
 62
     0
  5
377
 10
-211.595383
 20
53.701478
 30
0.0
  0
VERTEX
  8
0
  6
CONTINUOUS
 62
     0
  5
378
 10
-211.595383
 20
52.878539
 30
0.0
  0
SEQEND
  8
0
  6
CONTINUOUS
 62
     0
  5
379
  0
POLYLINE
  8
0
  6
CONTINUOUS
 62
     0
  5
37B
 66
     1
 10
0.0
 20
0.0
 30
0.0
 70
     1
  0
VERTEX
  8
0
  6
CONTINUOUS
 62
     0
  5
37C
 10
-211.595383
 20
51.515601
 30
0.0
  0
VERTEX
  8
0
  6
CONTINUOUS
 62
     0
  5
37D
 10
-211.571983
 20
51.695601
 30
0.0
  0
VERTEX
  8
0
  6
CONTINUOUS
 62
     0
  5
37E
 10
-211.618783
 20
51.695601
 30
0.0
  0
SEQEND
  8
0
  6
CONTINUOUS
 62
     0
  5
37F
  0
POLYLINE
  8
0
  6
CONTINUOUS
 62
     0
  5
381
 66
     1
 10
0.0
 20
0.0
 30
0.0
 70
     1
  0
VERTEX
  8
0
  6
CONTINUOUS
 62
     0
  5
382
 10
-211.595383
 20
53.881478
 30
0.0
  0
VERTEX
  8
0
  6
CONTINUOUS
 62
     0
  5
383
 10
-211.618783
 20
53.701478
 30
0.0
  0
VERTEX
  8
0
  6
CONTINUOUS
 62
     0
  5
384
 10
-211.571983
 20
53.701478
 30
0.0
  0
SEQEND
  8
0
  6
CONTINUOUS
 62
     0
  5
385
  0
TEXT
  8
0
  6
CONTINUOUS
 62
     0
  5
386
 10
-211.975409
 20
52.60854
 30
0.0
 40
0.18
  1
2 3/8
 72
     1
 11
-211.70074
 21
52.698539
 31
0.0
 73
     2
  0
TEXT
  8
0
  6
CONTINUOUS
 62
     0
  5
387
 10
-211.426071
 20
52.60854
 30
0.0
 40
0.18
  1
in
 11
-211.426071
 21
52.788539
 31
0.0
 73
     3
  0
ENDBLK
  8
0
  5
388
  0
BLOCK
  8
0
  5
38B
  2
*D13
 70
     1
 10
0.0
 20
0.0
 30
0.0
  3
*D13
  0
LINE
  8
0
  6
CONTINUOUS
 62
     0
  5
38C
 10
-214.927829
 20
49.801224
 30
0.0
 11
-216.709351
 21
49.801224
 31
0.0
  0
LINE
  8
0
  6
CONTINUOUS
 62
     0
  5
38D
 10
-215.438583
 20
51.616995
 30
0.0
 11
-216.709351
 21
51.616995
 31
0.0
  0
POLYLINE
  8
0
  6
CONTINUOUS
 62
     0
  5
38E
 66
     1
 10
0.0
 20
0.0
 30
0.0
  0
VERTEX
  8
0
  6
CONTINUOUS
 62
     0
  5
38F
 10
-216.529351
 20
49.981224
 30
0.0
  0
VERTEX
  8
0
  6
CONTINUOUS
 62
     0
  5
390
 10
-216.529351
 20
49.981224
 30
0.0
  0
VERTEX
  8
0
  6
CONTINUOUS
 62
     0
  5
391
 10
-216.529351
 20
49.981224
 30
0.0
  0
VERTEX
  8
0
  6
CONTINUOUS
 62
     0
  5
392
 10
-216.529351
 20
50.529109
 30
0.0
  0
SEQEND
  8
0
  6
CONTINUOUS
 62
     0
  5
393
  0
POLYLINE
  8
0
  6
CONTINUOUS
 62
     0
  5
394
 66
     1
 10
0.0
 20
0.0
 30
0.0
  0
VERTEX
  8
0
  6
CONTINUOUS
 62
     0
  5
395
 10
-216.529351
 20
51.436995
 30
0.0
  0
VERTEX
  8
0
  6
CONTINUOUS
 62
     0
  5
396
 10
-216.529351
 20
51.436995
 30
0.0
  0
VERTEX
  8
0
  6
CONTINUOUS
 62
     0
  5
397
 10
-216.529351
 20
51.436995
 30
0.0
  0
VERTEX
  8
0
  6
CONTINUOUS
 62
     0
  5
398
 10
-216.529351
 20
50.889109
 30
0.0
  0
SEQEND
  8
0
  6
CONTINUOUS
 62
     0
  5
399
  0
POLYLINE
  8
0
  6
CONTINUOUS
 62
     0
  5
39B
 66
     1
 10
0.0
 20
0.0
 30
0.0
 70
     1
  0
VERTEX
  8
0
  6
CONTINUOUS
 62
     0
  5
39C
 10
-216.529351
 20
49.801224
 30
0.0
  0
VERTEX
  8
0
  6
CONTINUOUS
 62
     0
  5
39D
 10
-216.505951
 20
49.981224
 30
0.0
  0
VERTEX
  8
0
  6
CONTINUOUS
 62
     0
  5
39E
 10
-216.552751
 20
49.981224
 30
0.0
  0
SEQEND
  8
0
  6
CONTINUOUS
 62
     0
  5
39F
  0
POLYLINE
  8
0
  6
CONTINUOUS
 62
     0
  5
3A1
 66
     1
 10
0.0
 20
0.0
 30
0.0
 70
     1
  0
VERTEX
  8
0
  6
CONTINUOUS
 62
     0
  5
3A2
 10
-216.529351
 20
51.616995
 30
0.0
  0
VERTEX
  8
0
  6
CONTINUOUS
 62
     0
  5
3A3
 10
-216.552751
 20
51.436995
 30
0.0
  0
VERTEX
  8
0
  6
CONTINUOUS
 62
     0
  5
3A4
 10
-216.505951
 20
51.436995
 30
0.0
  0
SEQEND
  8
0
  6
CONTINUOUS
 62
     0
  5
3A5
  0
TEXT
  8
0
  6
CONTINUOUS
 62
     0
  5
3A6
 10
-217.044827
 20
50.61911
 30
0.0
 40
0.18
  1
1 13/16
 72
     1
 11
-216.634708
 21
50.709109
 31
0.0
 73
     2
  0
TEXT
  8
0
  6
CONTINUOUS
 62
     0
  5
3A7
 10
-216.224589
 20
50.61911
 30
0.0
 40
0.18
  1
in
 11
-216.224589
 21
50.799109
 31
0.0
 73
     3
  0
ENDBLK
  8
0
  5
3A8
  0
BLOCK
  8
0
  5
3AB
  2
*D14
 70
     1
 10
0.0
 20
0.0
 30
0.0
  3
*D14
  0
LINE
  8
0
  6
CONTINUOUS
 62
     0
  5
3AC
 10
-215.497725
 20
51.616995
 30
0.0
 11
-216.709351
 21
51.616995
 31
0.0
  0
LINE
  8
0
  6
CONTINUOUS
 62
     0
  5
3AD
 10
-215.054161
 20
53.982873
 30
0.0
 11
-216.709351
 21
53.982873
 31
0.0
  0
POLYLINE
  8
0
  6
CONTINUOUS
 62
     0
  5
3AE
 66
     1
 10
0.0
 20
0.0
 30
0.0
  0
VERTEX
  8
0
  6
CONTINUOUS
 62
     0
  5
3AF
 10
-216.529351
 20
51.796995
 30
0.0
  0
VERTEX
  8
0
  6
CONTINUOUS
 62
     0
  5
3B0
 10
-216.529351
 20
51.796995
 30
0.0
  0
VERTEX
  8
0
  6
CONTINUOUS
 62
     0
  5
3B1
 10
-216.529351
 20
51.796995
 30
0.0
  0
VERTEX
  8
0
  6
CONTINUOUS
 62
     0
  5
3B2
 10
-216.529351
 20
52.619934
 30
0.0
  0
SEQEND
  8
0
  6
CONTINUOUS
 62
     0
  5
3B3
  0
POLYLINE
  8
0
  6
CONTINUOUS
 62
     0
  5
3B4
 66
     1
 10
0.0
 20
0.0
 30
0.0
  0
VERTEX
  8
0
  6
CONTINUOUS
 62
     0
  5
3B5
 10
-216.529351
 20
53.802873
 30
0.0
  0
VERTEX
  8
0
  6
CONTINUOUS
 62
     0
  5
3B6
 10
-216.529351
 20
53.802873
 30
0.0
  0
VERTEX
  8
0
  6
CONTINUOUS
 62
     0
  5
3B7
 10
-216.529351
 20
53.802873
 30
0.0
  0
VERTEX
  8
0
  6
CONTINUOUS
 62
     0
  5
3B8
 10
-216.529351
 20
52.979934
 30
0.0
  0
SEQEND
  8
0
  6
CONTINUOUS
 62
     0
  5
3B9
  0
POLYLINE
  8
0
  6
CONTINUOUS
 62
     0
  5
3BB
 66
     1
 10
0.0
 20
0.0
 30
0.0
 70
     1
  0
VERTEX
  8
0
  6
CONTINUOUS
 62
     0
  5
3BC
 10
-216.529351
 20
51.616995
 30
0.0
  0
VERTEX
  8
0
  6
CONTINUOUS
 62
     0
  5
3BD
 10
-216.505951
 20
51.796995
 30
0.0
  0
VERTEX
  8
0
  6
CONTINUOUS
 62
     0
  5
3BE
 10
-216.552751
 20
51.796995
 30
0.0
  0
SEQEND
  8
0
  6
CONTINUOUS
 62
     0
  5
3BF
  0
POLYLINE
  8
0
  6
CONTINUOUS
 62
     0
  5
3C1
 66
     1
 10
0.0
 20
0.0
 30
0.0
 70
     1
  0
VERTEX
  8
0
  6
CONTINUOUS
 62
     0
  5
3C2
 10
-216.529351
 20
53.982873
 30
0.0
  0
VERTEX
  8
0
  6
CONTINUOUS
 62
     0
  5
3C3
 10
-216.552751
 20
53.802873
 30
0.0
  0
VERTEX
  8
0
  6
CONTINUOUS
 62
     0
  5
3C4
 10
-216.505951
 20
53.802873
 30
0.0
  0
SEQEND
  8
0
  6
CONTINUOUS
 62
     0
  5
3C5
  0
TEXT
  8
0
  6
CONTINUOUS
 62
     0
  5
3C6
 10
-216.909377
 20
52.709934
 30
0.0
 40
0.18
  1
2 3/8
 72
     1
 11
-216.634708
 21
52.799934
 31
0.0
 73
     2
  0
TEXT
  8
0
  6
CONTINUOUS
 62
     0
  5
3C7
 10
-216.360039
 20
52.709934
 30
0.0
 40
0.18
  1
in
 11
-216.360039
 21
52.889934
 31
0.0
 73
     3
  0
ENDBLK
  8
0
  5
3C8
  0
BLOCK
  8
0
  5
3CB
  2
*D15
 70
     1
 10
0.0
 20
0.0
 30
0.0
  3
*D15
  0
LINE
  8
0
  6
CONTINUOUS
 62
     0
  5
3CC
 10
-227.038418
 20
52.144028
 30
0.0
 11
-227.038418
 21
51.695388
 31
0.0
  0
LINE
  8
0
  6
CONTINUOUS
 62
     0
  5
3CD
 10
-223.88787
 20
52.0849
 30
0.0
 11
-223.88787
 21
51.695388
 31
0.0
  0
POLYLINE
  8
0
  6
CONTINUOUS
 62
     0
  5
3CE
 66
     1
 10
0.0
 20
0.0
 30
0.0
  0
VERTEX
  8
0
  6
CONTINUOUS
 62
     0
  5
3CF
 10
-226.858418
 20
51.875388
 30
0.0
  0
VERTEX
  8
0
  6
CONTINUOUS
 62
     0
  5
3D0
 10
-226.858418
 20
51.875388
 30
0.0
  0
VERTEX
  8
0
  6
CONTINUOUS
 62
     0
  5
3D1
 10
-226.858418
 20
51.875388
 30
0.0
  0
VERTEX
  8
0
  6
CONTINUOUS
 62
     0
  5
3D2
 10
-225.87317
 20
51.875388
 30
0.0
  0
SEQEND
  8
0
  6
CONTINUOUS
 62
     0
  5
3D3
  0
POLYLINE
  8
0
  6
CONTINUOUS
 62
     0
  5
3D4
 66
     1
 10
0.0
 20
0.0
 30
0.0
  0
VERTEX
  8
0
  6
CONTINUOUS
 62
     0
  5
3D5
 10
-224.06787
 20
51.875388
 30
0.0
  0
VERTEX
  8
0
  6
CONTINUOUS
 62
     0
  5
3D6
 10
-224.06787
 20
51.875388
 30
0.0
  0
VERTEX
  8
0
  6
CONTINUOUS
 62
     0
  5
3D7
 10
-224.06787
 20
51.875388
 30
0.0
  0
VERTEX
  8
0
  6
CONTINUOUS
 62
     0
  5
3D8
 10
-225.053118
 20
51.875388
 30
0.0
  0
SEQEND
  8
0
  6
CONTINUOUS
 62
     0
  5
3D9
  0
POLYLINE
  8
0
  6
CONTINUOUS
 62
     0
  5
3DB
 66
     1
 10
0.0
 20
0.0
 30
0.0
 70
     1
  0
VERTEX
  8
0
  6
CONTINUOUS
 62
     0
  5
3DC
 10
-227.038418
 20
51.875388
 30
0.0
  0
VERTEX
  8
0
  6
CONTINUOUS
 62
     0
  5
3DD
 10
-226.858418
 20
51.851988
 30
0.0
  0
VERTEX
  8
0
  6
CONTINUOUS
 62
     0
  5
3DE
 10
-226.858418
 20
51.898788
 30
0.0
  0
SEQEND
  8
0
  6
CONTINUOUS
 62
     0
  5
3DF
  0
POLYLINE
  8
0
  6
CONTINUOUS
 62
     0
  5
3E1
 66
     1
 10
0.0
 20
0.0
 30
0.0
 70
     1
  0
VERTEX
  8
0
  6
CONTINUOUS
 62
     0
  5
3E2
 10
-223.88787
 20
51.875388
 30
0.0
  0
VERTEX
  8
0
  6
CONTINUOUS
 62
     0
  5
3E3
 10
-224.06787
 20
51.898788
 30
0.0
  0
VERTEX
  8
0
  6
CONTINUOUS
 62
     0
  5
3E4
 10
-224.06787
 20
51.851988
 30
0.0
  0
SEQEND
  8
0
  6
CONTINUOUS
 62
     0
  5
3E5
  0
TEXT
  8
0
  6
CONTINUOUS
 62
     0
  5
3E6
 10
-225.84317
 20
51.785388
 30
0.0
 40
0.18
  1
3 1/8
 72
     1
 11
-225.568501
 21
51.875388
 31
0.0
 73
     2
  0
TEXT
  8
0
  6
CONTINUOUS
 62
     0
  5
3E7
 10
-225.293832
 20
51.785388
 30
0.0
 40
0.18
  1
in
 11
-225.293832
 21
51.965388
 31
0.0
 73
     3
  0
ENDBLK
  8
0
  5
3E8
  0
BLOCK
  8
0
  5
3EB
  2
*D16
 70
     1
 10
0.0
 20
0.0
 30
0.0
  3
*D16
  0
POLYLINE
  8
0
  6
CONTINUOUS
 62
     0
  5
3EC
 66
     1
 10
0.0
 20
0.0
 30
0.0
  0
VERTEX
  8
0
  6
CONTINUOUS
 62
     0
  5
3ED
 10
-223.88787
 20
52.0849
 30
0.0
  0
VERTEX
  8
0
  6
CONTINUOUS
 62
     0
  5
3EE
 10
-223.88787
 20
52.055388
 30
0.0
  0
SEQEND
  8
0
  6
CONTINUOUS
 62
     0
  5
3EF
  0
POLYLINE
  8
0
  6
CONTINUOUS
 62
     0
  5
3F0
 66
     1
 10
0.0
 20
0.0
 30
0.0
  0
VERTEX
  8
0
  6
CONTINUOUS
 62
     0
  5
3F1
 10
-223.105929
 20
52.09428
 30
0.0
  0
VERTEX
  8
0
  6
CONTINUOUS
 62
     0
  5
3F2
 10
-223.105929
 20
52.055388
 30
0.0
  0
SEQEND
  8
0
  6
CONTINUOUS
 62
     0
  5
3F3
  0
POLYLINE
  8
0
  6
CONTINUOUS
 62
     0
  5
3F4
 66
     1
 10
0.0
 20
0.0
 30
0.0
  0
VERTEX
  8
0
  6
CONTINUOUS
 62
     0
  5
3F5
 10
-224.24787
 20
51.875388
 30
0.0
  0
VERTEX
  8
0
  6
CONTINUOUS
 62
     0
  5
3F6
 10
-224.06787
 20
51.875388
 30
0.0
  0
SEQEND
  8
0
  6
CONTINUOUS
 62
     0
  5
3F7
  0
POLYLINE
  8
0
  6
CONTINUOUS
 62
     0
  5
3F8
 66
     1
 10
0.0
 20
0.0
 30
0.0
  0
VERTEX
  8
0
  6
CONTINUOUS
 62
     0
  5
3F9
 10
-224.06787
 20
51.875388
 30
0.0
  0
VERTEX
  8
0
  6
CONTINUOUS
 62
     0
  5
3FA
 10
-224.06787
 20
51.875388
 30
0.0
  0
SEQEND
  8
0
  6
CONTINUOUS
 62
     0
  5
3FB
  0
POLYLINE
  8
0
  6
CONTINUOUS
 62
     0
  5
3FC
 66
     1
 10
0.0
 20
0.0
 30
0.0
  0
VERTEX
  8
0
  6
CONTINUOUS
 62
     0
  5
3FD
 10
-222.565929
 20
51.875388
 30
0.0
  0
VERTEX
  8
0
  6
CONTINUOUS
 62
     0
  5
3FE
 10
-222.745929
 20
51.875388
 30
0.0
  0
VERTEX
  8
0
  6
CONTINUOUS
 62
     0
  5
3FF
 10
-222.925929
 20
51.875388
 30
0.0
  0
VERTEX
  8
0
  6
CONTINUOUS
 62
     0
  5
400
 10
-222.925929
 20
51.875388
 30
0.0
  0
SEQEND
  8
0
  6
CONTINUOUS
 62
     0
  5
401
  0
TEXT
  8
0
  6
CONTINUOUS
 62
     0
  5
402
 10
-223.910788
 20
51.785388
 30
0.0
 40
0.18
  1
13/16
 72
     1
 11
-223.602256
 21
51.875388
 31
0.0
 73
     2
  0
TEXT
  8
0
  6
CONTINUOUS
 62
     0
  5
403
 10
-223.293724
 20
51.785388
 30
0.0
 40
0.18
  1
in
 11
-223.293724
 21
51.965388
 31
0.0
 73
     3
  0
ENDBLK
  8
0
  5
404
  0
BLOCK
  8
0
  5
407
  2
*D17
 70
     1
 10
0.0
 20
0.0
 30
0.0
  3
*D17
  0
LINE
  8
0
  6
CONTINUOUS
 62
     0
  5
408
 10
-223.105929
 20
52.09428
 30
0.0
 11
-223.105929
 21
51.695388
 31
0.0
  0
LINE
  8
0
  6
CONTINUOUS
 62
     0
  5
409
 10
-222.33133
 20
52.0849
 30
0.0
 11
-222.33133
 21
51.695388
 31
0.0
  0
POLYLINE
  8
0
  6
CONTINUOUS
 62
     0
  5
40A
 66
     1
 10
0.0
 20
0.0
 30
0.0
  0
VERTEX
  8
0
  6
CONTINUOUS
 62
     0
  5
40B
 10
-223.465929
 20
51.875388
 30
0.0
  0
VERTEX
  8
0
  6
CONTINUOUS
 62
     0
  5
40C
 10
-223.285929
 20
51.875388
 30
0.0
  0
SEQEND
  8
0
  6
CONTINUOUS
 62
     0
  5
40D
  0
POLYLINE
  8
0
  6
CONTINUOUS
 62
     0
  5
40E
 66
     1
 10
0.0
 20
0.0
 30
0.0
  0
VERTEX
  8
0
  6
CONTINUOUS
 62
     0
  5
40F
 10
-223.285929
 20
51.875388
 30
0.0
  0
VERTEX
  8
0
  6
CONTINUOUS
 62
     0
  5
410
 10
-223.285929
 20
51.875388
 30
0.0
  0
SEQEND
  8
0
  6
CONTINUOUS
 62
     0
  5
411
  0
POLYLINE
  8
0
  6
CONTINUOUS
 62
     0
  5
412
 66
     1
 10
0.0
 20
0.0
 30
0.0
  0
VERTEX
  8
0
  6
CONTINUOUS
 62
     0
  5
413
 10
-221.79133
 20
51.875388
 30
0.0
  0
VERTEX
  8
0
  6
CONTINUOUS
 62
     0
  5
414
 10
-221.97133
 20
51.875388
 30
0.0
  0
VERTEX
  8
0
  6
CONTINUOUS
 62
     0
  5
415
 10
-222.15133
 20
51.875388
 30
0.0
  0
VERTEX
  8
0
  6
CONTINUOUS
 62
     0
  5
416
 10
-222.15133
 20
51.875388
 30
0.0
  0
SEQEND
  8
0
  6
CONTINUOUS
 62
     0
  5
417
  0
POLYLINE
  8
0
  6
CONTINUOUS
 62
     0
  5
419
 66
     1
 10
0.0
 20
0.0
 30
0.0
 70
     1
  0
VERTEX
  8
0
  6
CONTINUOUS
 62
     0
  5
41A
 10
-222.33133
 20
51.875388
 30
0.0
  0
VERTEX
  8
0
  6
CONTINUOUS
 62
     0
  5
41B
 10
-222.15133
 20
51.851988
 30
0.0
  0
VERTEX
  8
0
  6
CONTINUOUS
 62
     0
  5
41C
 10
-222.15133
 20
51.898788
 30
0.0
  0
SEQEND
  8
0
  6
CONTINUOUS
 62
     0
  5
41D
  0
POLYLINE
  8
0
  6
CONTINUOUS
 62
     0
  5
41F
 66
     1
 10
0.0
 20
0.0
 30
0.0
 70
     1
  0
VERTEX
  8
0
  6
CONTINUOUS
 62
     0
  5
420
 10
-223.105929
 20
51.875388
 30
0.0
  0
VERTEX
  8
0
  6
CONTINUOUS
 62
     0
  5
421
 10
-223.285929
 20
51.898788
 30
0.0
  0
VERTEX
  8
0
  6
CONTINUOUS
 62
     0
  5
422
 10
-223.285929
 20
51.851988
 30
0.0
  0
SEQEND
  8
0
  6
CONTINUOUS
 62
     0
  5
423
  0
TEXT
  8
0
  6
CONTINUOUS
 62
     0
  5
424
 10
-222.997069
 20
51.785388
 30
0.0
 40
0.18
  1
3/4
 72
     1
 11
-222.823987
 21
51.875388
 31
0.0
 73
     2
  0
TEXT
  8
0
  6
CONTINUOUS
 62
     0
  5
425
 10
-222.650905
 20
51.785388
 30
0.0
 40
0.18
  1
in
 11
-222.650905
 21
51.965388
 31
0.0
 73
     3
  0
ENDBLK
  8
0
  5
426
  0
BLOCK
  8
0
  5
429
  2
*D18
 70
     1
 10
0.0
 20
0.0
 30
0.0
  3
*D18
  0
POLYLINE
  8
0
  6
CONTINUOUS
 62
     0
  5
42A
 66
     1
 10
0.0
 20
0.0
 30
0.0
  0
VERTEX
  8
0
  6
CONTINUOUS
 62
     0
  5
42B
 10
-222.33133
 20
52.0849
 30
0.0
  0
VERTEX
  8
0
  6
CONTINUOUS
 62
     0
  5
42C
 10
-222.33133
 20
52.046009
 30
0.0
  0
SEQEND
  8
0
  6
CONTINUOUS
 62
     0
  5
42D
  0
POLYLINE
  8
0
  6
CONTINUOUS
 62
     0
  5
42E
 66
     1
 10
0.0
 20
0.0
 30
0.0
  0
VERTEX
  8
0
  6
CONTINUOUS
 62
     0
  5
42F
 10
-221.527363
 20
52.09428
 30
0.0
  0
VERTEX
  8
0
  6
CONTINUOUS
 62
     0
  5
430
 10
-221.527363
 20
52.046009
 30
0.0
  0
SEQEND
  8
0
  6
CONTINUOUS
 62
     0
  5
431
  0
POLYLINE
  8
0
  6
CONTINUOUS
 62
     0
  5
432
 66
     1
 10
0.0
 20
0.0
 30
0.0
  0
VERTEX
  8
0
  6
CONTINUOUS
 62
     0
  5
433
 10
-222.69133
 20
51.875388
 30
0.0
  0
VERTEX
  8
0
  6
CONTINUOUS
 62
     0
  5
434
 10
-222.51133
 20
51.875388
 30
0.0
  0
SEQEND
  8
0
  6
CONTINUOUS
 62
     0
  5
435
  0
POLYLINE
  8
0
  6
CONTINUOUS
 62
     0
  5
436
 66
     1
 10
0.0
 20
0.0
 30
0.0
  0
VERTEX
  8
0
  6
CONTINUOUS
 62
     0
  5
437
 10
-222.51133
 20
51.875388
 30
0.0
  0
VERTEX
  8
0
  6
CONTINUOUS
 62
     0
  5
438
 10
-222.51133
 20
51.875388
 30
0.0
  0
SEQEND
  8
0
  6
CONTINUOUS
 62
     0
  5
439
  0
POLYLINE
  8
0
  6
CONTINUOUS
 62
     0
  5
43A
 66
     1
 10
0.0
 20
0.0
 30
0.0
  0
VERTEX
  8
0
  6
CONTINUOUS
 62
     0
  5
43B
 10
-220.987363
 20
51.875388
 30
0.0
  0
VERTEX
  8
0
  6
CONTINUOUS
 62
     0
  5
43C
 10
-221.167363
 20
51.875388
 30
0.0
  0
VERTEX
  8
0
  6
CONTINUOUS
 62
     0
  5
43D
 10
-221.347363
 20
51.875388
 30
0.0
  0
VERTEX
  8
0
  6
CONTINUOUS
 62
     0
  5
43E
 10
-221.347363
 20
51.875388
 30
0.0
  0
SEQEND
  8
0
  6
CONTINUOUS
 62
     0
  5
43F
  0
TEXT
  8
0
  6
CONTINUOUS
 62
     0
  5
440
 10
-222.343236
 20
51.776009
 30
0.0
 40
0.18
  1
13/16
 72
     1
 11
-222.034704
 21
51.866009
 31
0.0
 73
     2
  0
TEXT
  8
0
  6
CONTINUOUS
 62
     0
  5
441
 10
-221.726172
 20
51.776009
 30
0.0
 40
0.18
  1
in
 11
-221.726172
 21
51.956009
 31
0.0
 73
     3
  0
ENDBLK
  8
0
  5
442
  0
BLOCK
  8
0
  5
445
  2
*D19
 70
     1
 10
0.0
 20
0.0
 30
0.0
  3
*D19
  0
LINE
  8
0
  6
CONTINUOUS
 62
     0
  5
446
 10
-221.527363
 20
52.09428
 30
0.0
 11
-221.527363
 21
51.695388
 31
0.0
  0
LINE
  8
0
  6
CONTINUOUS
 62
     0
  5
447
 10
-218.431794
 20
52.144028
 30
0.0
 11
-218.431794
 21
51.695388
 31
0.0
  0
POLYLINE
  8
0
  6
CONTINUOUS
 62
     0
  5
448
 66
     1
 10
0.0
 20
0.0
 30
0.0
  0
VERTEX
  8
0
  6
CONTINUOUS
 62
     0
  5
449
 10
-221.347363
 20
51.875388
 30
0.0
  0
VERTEX
  8
0
  6
CONTINUOUS
 62
     0
  5
44A
 10
-221.347363
 20
51.875388
 30
0.0
  0
VERTEX
  8
0
  6
CONTINUOUS
 62
     0
  5
44B
 10
-221.347363
 20
51.875388
 30
0.0
  0
VERTEX
  8
0
  6
CONTINUOUS
 62
     0
  5
44C
 10
-220.389605
 20
51.875388
 30
0.0
  0
SEQEND
  8
0
  6
CONTINUOUS
 62
     0
  5
44D
  0
POLYLINE
  8
0
  6
CONTINUOUS
 62
     0
  5
44E
 66
     1
 10
0.0
 20
0.0
 30
0.0
  0
VERTEX
  8
0
  6
CONTINUOUS
 62
     0
  5
44F
 10
-218.611794
 20
51.875388
 30
0.0
  0
VERTEX
  8
0
  6
CONTINUOUS
 62
     0
  5
450
 10
-218.611794
 20
51.875388
 30
0.0
  0
VERTEX
  8
0
  6
CONTINUOUS
 62
     0
  5
451
 10
-218.611794
 20
51.875388
 30
0.0
  0
VERTEX
  8
0
  6
CONTINUOUS
 62
     0
  5
452
 10
-219.569552
 20
51.875388
 30
0.0
  0
SEQEND
  8
0
  6
CONTINUOUS
 62
     0
  5
453
  0
POLYLINE
  8
0
  6
CONTINUOUS
 62
     0
  5
455
 66
     1
 10
0.0
 20
0.0
 30
0.0
 70
     1
  0
VERTEX
  8
0
  6
CONTINUOUS
 62
     0
  5
456
 10
-221.527363
 20
51.875388
 30
0.0
  0
VERTEX
  8
0
  6
CONTINUOUS
 62
     0
  5
457
 10
-221.347363
 20
51.851988
 30
0.0
  0
VERTEX
  8
0
  6
CONTINUOUS
 62
     0
  5
458
 10
-221.347363
 20
51.898788
 30
0.0
  0
SEQEND
  8
0
  6
CONTINUOUS
 62
     0
  5
459
  0
POLYLINE
  8
0
  6
CONTINUOUS
 62
     0
  5
45B
 66
     1
 10
0.0
 20
0.0
 30
0.0
 70
     1
  0
VERTEX
  8
0
  6
CONTINUOUS
 62
     0
  5
45C
 10
-218.431794
 20
51.875388
 30
0.0
  0
VERTEX
  8
0
  6
CONTINUOUS
 62
     0
  5
45D
 10
-218.611794
 20
51.898788
 30
0.0
  0
VERTEX
  8
0
  6
CONTINUOUS
 62
     0
  5
45E
 10
-218.611794
 20
51.851988
 30
0.0
  0
SEQEND
  8
0
  6
CONTINUOUS
 62
     0
  5
45F
  0
TEXT
  8
0
  6
CONTINUOUS
 62
     0
  5
460
 10
-220.359605
 20
51.785388
 30
0.0
 40
0.18
  1
3 1/8
 72
     1
 11
-220.084936
 21
51.875388
 31
0.0
 73
     2
  0
TEXT
  8
0
  6
CONTINUOUS
 62
     0
  5
461
 10
-219.810266
 20
51.785388
 30
0.0
 40
0.18
  1
in
 11
-219.810266
 21
51.965388
 31
0.0
 73
     3
  0
ENDBLK
  8
0
  5
462
  0
BLOCK
  8
0
  5
465
  2
*D20
 70
     1
 10
0.0
 20
0.0
 30
0.0
  3
*D20
  0
LINE
  8
0
  6
CONTINUOUS
 62
     0
  5
466
 10
-227.038418
 20
49.811959
 30
0.0
 11
-227.038418
 21
49.181622
 31
0.0
  0
LINE
  8
0
  6
CONTINUOUS
 62
     0
  5
467
 10
-218.408311
 20
49.811959
 30
0.0
 11
-218.408311
 21
49.181622
 31
0.0
  0
POLYLINE
  8
0
  6
CONTINUOUS
 62
     0
  5
468
 66
     1
 10
0.0
 20
0.0
 30
0.0
  0
VERTEX
  8
0
  6
CONTINUOUS
 62
     0
  5
469
 10
-226.858418
 20
49.361622
 30
0.0
  0
VERTEX
  8
0
  6
CONTINUOUS
 62
     0
  5
46A
 10
-226.858418
 20
49.361622
 30
0.0
  0
VERTEX
  8
0
  6
CONTINUOUS
 62
     0
  5
46B
 10
-226.858418
 20
49.361622
 30
0.0
  0
VERTEX
  8
0
  6
CONTINUOUS
 62
     0
  5
46C
 10
-223.133391
 20
49.361622
 30
0.0
  0
SEQEND
  8
0
  6
CONTINUOUS
 62
     0
  5
46D
  0
POLYLINE
  8
0
  6
CONTINUOUS
 62
     0
  5
46E
 66
     1
 10
0.0
 20
0.0
 30
0.0
  0
VERTEX
  8
0
  6
CONTINUOUS
 62
     0
  5
46F
 10
-218.588311
 20
49.361622
 30
0.0
  0
VERTEX
  8
0
  6
CONTINUOUS
 62
     0
  5
470
 10
-218.588311
 20
49.361622
 30
0.0
  0
VERTEX
  8
0
  6
CONTINUOUS
 62
     0
  5
471
 10
-218.588311
 20
49.361622
 30
0.0
  0
VERTEX
  8
0
  6
CONTINUOUS
 62
     0
  5
472
 10
-222.313338
 20
49.361622
 30
0.0
  0
SEQEND
  8
0
  6
CONTINUOUS
 62
     0
  5
473
  0
POLYLINE
  8
0
  6
CONTINUOUS
 62
     0
  5
475
 66
     1
 10
0.0
 20
0.0
 30
0.0
 70
     1
  0
VERTEX
  8
0
  6
CONTINUOUS
 62
     0
  5
476
 10
-227.038418
 20
49.361622
 30
0.0
  0
VERTEX
  8
0
  6
CONTINUOUS
 62
     0
  5
477
 10
-226.858418
 20
49.338222
 30
0.0
  0
VERTEX
  8
0
  6
CONTINUOUS
 62
     0
  5
478
 10
-226.858418
 20
49.385022
 30
0.0
  0
SEQEND
  8
0
  6
CONTINUOUS
 62
     0
  5
479
  0
POLYLINE
  8
0
  6
CONTINUOUS
 62
     0
  5
47B
 66
     1
 10
0.0
 20
0.0
 30
0.0
 70
     1
  0
VERTEX
  8
0
  6
CONTINUOUS
 62
     0
  5
47C
 10
-218.408311
 20
49.361622
 30
0.0
  0
VERTEX
  8
0
  6
CONTINUOUS
 62
     0
  5
47D
 10
-218.588311
 20
49.385022
 30
0.0
  0
VERTEX
  8
0
  6
CONTINUOUS
 62
     0
  5
47E
 10
-218.588311
 20
49.338222
 30
0.0
  0
SEQEND
  8
0
  6
CONTINUOUS
 62
     0
  5
47F
  0
TEXT
  8
0
  6
CONTINUOUS
 62
     0
  5
480
 10
-223.103391
 20
49.271622
 30
0.0
 40
0.18
  1
8 5/8
 72
     1
 11
-222.828722
 21
49.361622
 31
0.0
 73
     2
  0
TEXT
  8
0
  6
CONTINUOUS
 62
     0
  5
481
 10
-222.554052
 20
49.271622
 30
0.0
 40
0.18
  1
in
 11
-222.554052
 21
49.451622
 31
0.0
 73
     3
  0
ENDBLK
  8
0
  5
482
  0
BLOCK
  8
0
  5
485
  2
*D21
 70
     1
 10
0.0
 20
0.0
 30
0.0
  3
*D21
  0
LINE
  8
0
  6
CONTINUOUS
 62
     0
  5
486
 10
-218.345811
 20
51.235861
 30
0.0
 11
-217.802852
 21
51.235861
 31
0.0
  0
LINE
  8
0
  6
CONTINUOUS
 62
     0
  5
487
 10
-218.345811
 20
49.874459
 30
0.0
 11
-217.802852
 21
49.874459
 31
0.0
  0
POLYLINE
  8
0
  6
CONTINUOUS
 62
     0
  5
488
 66
     1
 10
0.0
 20
0.0
 30
0.0
  0
VERTEX
  8
0
  6
CONTINUOUS
 62
     0
  5
489
 10
-217.982852
 20
51.055861
 30
0.0
  0
VERTEX
  8
0
  6
CONTINUOUS
 62
     0
  5
48A
 10
-217.982852
 20
51.055861
 30
0.0
  0
VERTEX
  8
0
  6
CONTINUOUS
 62
     0
  5
48B
 10
-217.982852
 20
51.055861
 30
0.0
  0
VERTEX
  8
0
  6
CONTINUOUS
 62
     0
  5
48C
 10
-217.982852
 20
50.73516
 30
0.0
  0
SEQEND
  8
0
  6
CONTINUOUS
 62
     0
  5
48D
  0
POLYLINE
  8
0
  6
CONTINUOUS
 62
     0
  5
48E
 66
     1
 10
0.0
 20
0.0
 30
0.0
  0
VERTEX
  8
0
  6
CONTINUOUS
 62
     0
  5
48F
 10
-217.982852
 20
50.054459
 30
0.0
  0
VERTEX
  8
0
  6
CONTINUOUS
 62
     0
  5
490
 10
-217.982852
 20
50.054459
 30
0.0
  0
VERTEX
  8
0
  6
CONTINUOUS
 62
     0
  5
491
 10
-217.982852
 20
50.054459
 30
0.0
  0
VERTEX
  8
0
  6
CONTINUOUS
 62
     0
  5
492
 10
-217.982852
 20
50.37516
 30
0.0
  0
SEQEND
  8
0
  6
CONTINUOUS
 62
     0
  5
493
  0
POLYLINE
  8
0
  6
CONTINUOUS
 62
     0
  5
495
 66
     1
 10
0.0
 20
0.0
 30
0.0
 70
     1
  0
VERTEX
  8
0
  6
CONTINUOUS
 62
     0
  5
496
 10
-217.982852
 20
51.235861
 30
0.0
  0
VERTEX
  8
0
  6
CONTINUOUS
 62
     0
  5
497
 10
-218.006252
 20
51.055861
 30
0.0
  0
VERTEX
  8
0
  6
CONTINUOUS
 62
     0
  5
498
 10
-217.959452
 20
51.055861
 30
0.0
  0
SEQEND
  8
0
  6
CONTINUOUS
 62
     0
  5
499
  0
POLYLINE
  8
0
  6
CONTINUOUS
 62
     0
  5
49B
 66
     1
 10
0.0
 20
0.0
 30
0.0
 70
     1
  0
VERTEX
  8
0
  6
CONTINUOUS
 62
     0
  5
49C
 10
-217.982852
 20
49.874459
 30
0.0
  0
VERTEX
  8
0
  6
CONTINUOUS
 62
     0
  5
49D
 10
-217.959452
 20
50.054459
 30
0.0
  0
VERTEX
  8
0
  6
CONTINUOUS
 62
     0
  5
49E
 10
-218.006252
 20
50.054459
 30
0.0
  0
SEQEND
  8
0
  6
CONTINUOUS
 62
     0
  5
49F
  0
TEXT
  8
0
  6
CONTINUOUS
 62
     0
  5
4A0
 10
-218.362878
 20
50.46516
 30
0.0
 40
0.18
  1
1 3/8
 72
     1
 11
-218.088209
 21
50.55516
 31
0.0
 73
     2
  0
TEXT
  8
0
  6
CONTINUOUS
 62
     0
  5
4A1
 10
-217.81354
 20
50.46516
 30
0.0
 40
0.18
  1
in
 11
-217.81354
 21
50.64516
 31
0.0
 73
     3
  0
ENDBLK
  8
0
  5
4A2
  0
BLOCK
  8
0
  5
4A5
  2
*D22
 70
     1
 10
0.0
 20
0.0
 30
0.0
  3
*D22
  0
LINE
  8
0
  6
CONTINUOUS
 62
     0
  5
4A6
 10
-227.100918
 20
50.543424
 30
0.0
 11
-227.556296
 21
50.543424
 31
0.0
  0
LINE
  8
0
  6
CONTINUOUS
 62
     0
  5
4A7
 10
-227.100918
 20
49.874459
 30
0.0
 11
-227.556296
 21
49.874459
 31
0.0
  0
POLYLINE
  8
0
  6
CONTINUOUS
 62
     0
  5
4A8
 66
     1
 10
0.0
 20
0.0
 30
0.0
  0
VERTEX
  8
0
  6
CONTINUOUS
 62
     0
  5
4A9
 10
-227.376296
 20
50.903424
 30
0.0
  0
VERTEX
  8
0
  6
CONTINUOUS
 62
     0
  5
4AA
 10
-227.376296
 20
50.723424
 30
0.0
  0
SEQEND
  8
0
  6
CONTINUOUS
 62
     0
  5
4AB
  0
POLYLINE
  8
0
  6
CONTINUOUS
 62
     0
  5
4AC
 66
     1
 10
0.0
 20
0.0
 30
0.0
  0
VERTEX
  8
0
  6
CONTINUOUS
 62
     0
  5
4AD
 10
-227.376296
 20
50.723424
 30
0.0
  0
VERTEX
  8
0
  6
CONTINUOUS
 62
     0
  5
4AE
 10
-227.376296
 20
50.723424
 30
0.0
  0
SEQEND
  8
0
  6
CONTINUOUS
 62
     0
  5
4AF
  0
POLYLINE
  8
0
  6
CONTINUOUS
 62
     0
  5
4B0
 66
     1
 10
0.0
 20
0.0
 30
0.0
  0
VERTEX
  8
0
  6
CONTINUOUS
 62
     0
  5
4B1
 10
-227.196296
 20
49.514459
 30
0.0
  0
VERTEX
  8
0
  6
CONTINUOUS
 62
     0
  5
4B2
 10
-227.376296
 20
49.514459
 30
0.0
  0
VERTEX
  8
0
  6
CONTINUOUS
 62
     0
  5
4B3
 10
-227.376296
 20
49.694459
 30
0.0
  0
VERTEX
  8
0
  6
CONTINUOUS
 62
     0
  5
4B4
 10
-227.376296
 20
49.694459
 30
0.0
  0
SEQEND
  8
0
  6
CONTINUOUS
 62
     0
  5
4B5
  0
POLYLINE
  8
0
  6
CONTINUOUS
 62
     0
  5
4B7
 66
     1
 10
0.0
 20
0.0
 30
0.0
 70
     1
  0
VERTEX
  8
0
  6
CONTINUOUS
 62
     0
  5
4B8
 10
-227.376296
 20
49.874459
 30
0.0
  0
VERTEX
  8
0
  6
CONTINUOUS
 62
     0
  5
4B9
 10
-227.399696
 20
49.694459
 30
0.0
  0
VERTEX
  8
0
  6
CONTINUOUS
 62
     0
  5
4BA
 10
-227.352896
 20
49.694459
 30
0.0
  0
SEQEND
  8
0
  6
CONTINUOUS
 62
     0
  5
4BB
  0
POLYLINE
  8
0
  6
CONTINUOUS
 62
     0
  5
4BD
 66
     1
 10
0.0
 20
0.0
 30
0.0
 70
     1
  0
VERTEX
  8
0
  6
CONTINUOUS
 62
     0
  5
4BE
 10
-227.376296
 20
50.543424
 30
0.0
  0
VERTEX
  8
0
  6
CONTINUOUS
 62
     0
  5
4BF
 10
-227.352896
 20
50.723424
 30
0.0
  0
VERTEX
  8
0
  6
CONTINUOUS
 62
     0
  5
4C0
 10
-227.399696
 20
50.723424
 30
0.0
  0
SEQEND
  8
0
  6
CONTINUOUS
 62
     0
  5
4C1
  0
TEXT
  8
0
  6
CONTINUOUS
 62
     0
  5
4C2
 10
-227.106296
 20
49.424459
 30
0.0
 40
0.18
  1
11/16
 72
     1
 11
-226.797764
 21
49.514459
 31
0.0
 73
     2
  0
TEXT
  8
0
  6
CONTINUOUS
 62
     0
  5
4C3
 10
-226.489233
 20
49.424459
 30
0.0
 40
0.18
  1
in
 11
-226.489233
 21
49.604459
 31
0.0
 73
     3
  0
ENDBLK
  8
0
  5
4C4
  0
BLOCK
  8
0
  5
4C7
  2
*D23
 70
     1
 10
0.0
 20
0.0
 30
0.0
  3
*D23
  0
LINE
  8
0
  6
CONTINUOUS
 62
     0
  5
4C8
 10
-215.054161
 20
53.982873
 30
0.0
 11
-216.709351
 21
53.982873
 31
0.0
  0
LINE
  8
0
  6
CONTINUOUS
 62
     0
  5
4C9
 10
-215.30124
 20
56.081209
 30
0.0
 11
-216.709351
 21
56.081209
 31
0.0
  0
POLYLINE
  8
0
  6
CONTINUOUS
 62
     0
  5
4CA
 66
     1
 10
0.0
 20
0.0
 30
0.0
  0
VERTEX
  8
0
  6
CONTINUOUS
 62
     0
  5
4CB
 10
-216.529351
 20
54.162873
 30
0.0
  0
VERTEX
  8
0
  6
CONTINUOUS
 62
     0
  5
4CC
 10
-216.529351
 20
54.162873
 30
0.0
  0
VERTEX
  8
0
  6
CONTINUOUS
 62
     0
  5
4CD
 10
-216.529351
 20
54.162873
 30
0.0
  0
VERTEX
  8
0
  6
CONTINUOUS
 62
     0
  5
4CE
 10
-216.529351
 20
54.852041
 30
0.0
  0
SEQEND
  8
0
  6
CONTINUOUS
 62
     0
  5
4CF
  0
POLYLINE
  8
0
  6
CONTINUOUS
 62
     0
  5
4D0
 66
     1
 10
0.0
 20
0.0
 30
0.0
  0
VERTEX
  8
0
  6
CONTINUOUS
 62
     0
  5
4D1
 10
-216.529351
 20
55.901209
 30
0.0
  0
VERTEX
  8
0
  6
CONTINUOUS
 62
     0
  5
4D2
 10
-216.529351
 20
55.901209
 30
0.0
  0
VERTEX
  8
0
  6
CONTINUOUS
 62
     0
  5
4D3
 10
-216.529351
 20
55.901209
 30
0.0
  0
VERTEX
  8
0
  6
CONTINUOUS
 62
     0
  5
4D4
 10
-216.529351
 20
55.212041
 30
0.0
  0
SEQEND
  8
0
  6
CONTINUOUS
 62
     0
  5
4D5
  0
POLYLINE
  8
0
  6
CONTINUOUS
 62
     0
  5
4D7
 66
     1
 10
0.0
 20
0.0
 30
0.0
 70
     1
  0
VERTEX
  8
0
  6
CONTINUOUS
 62
     0
  5
4D8
 10
-216.529351
 20
53.982873
 30
0.0
  0
VERTEX
  8
0
  6
CONTINUOUS
 62
     0
  5
4D9
 10
-216.505951
 20
54.162873
 30
0.0
  0
VERTEX
  8
0
  6
CONTINUOUS
 62
     0
  5
4DA
 10
-216.552751
 20
54.162873
 30
0.0
  0
SEQEND
  8
0
  6
CONTINUOUS
 62
     0
  5
4DB
  0
POLYLINE
  8
0
  6
CONTINUOUS
 62
     0
  5
4DD
 66
     1
 10
0.0
 20
0.0
 30
0.0
 70
     1
  0
VERTEX
  8
0
  6
CONTINUOUS
 62
     0
  5
4DE
 10
-216.529351
 20
56.081209
 30
0.0
  0
VERTEX
  8
0
  6
CONTINUOUS
 62
     0
  5
4DF
 10
-216.552751
 20
55.901209
 30
0.0
  0
VERTEX
  8
0
  6
CONTINUOUS
 62
     0
  5
4E0
 10
-216.505951
 20
55.901209
 30
0.0
  0
SEQEND
  8
0
  6
CONTINUOUS
 62
     0
  5
4E1
  0
TEXT
  8
0
  6
CONTINUOUS
 62
     0
  5
4E2
 10
-216.909377
 20
54.942041
 30
0.0
 40
0.18
  1
2 1/8
 72
     1
 11
-216.634708
 21
55.032041
 31
0.0
 73
     2
  0
TEXT
  8
0
  6
CONTINUOUS
 62
     0
  5
4E3
 10
-216.360039
 20
54.942041
 30
0.0
 40
0.18
  1
in
 11
-216.360039
 21
55.122041
 31
0.0
 73
     3
  0
ENDBLK
  8
0
  5
4E4
  0
BLOCK
  8
0
  5
4E9
  2
*D24
 70
     1
 10
0.0
 20
0.0
 30
0.0
  3
*D24
  0
LINE
  8
0
  6
CONTINUOUS
 62
     0
  5
4EA
 10
-229.926737
 20
52.206528
 30
0.0
 11
-230.234876
 21
52.206528
 31
0.0
  0
LINE
  8
0
  6
CONTINUOUS
 62
     0
  5
4EB
 10
-229.926737
 20
52.761899
 30
0.0
 11
-230.234876
 21
52.761899
 31
0.0
  0
POLYLINE
  8
0
  6
CONTINUOUS
 62
     0
  5
4EC
 66
     1
 10
0.0
 20
0.0
 30
0.0
  0
VERTEX
  8
0
  6
CONTINUOUS
 62
     0
  5
4ED
 10
-230.054876
 20
51.846528
 30
0.0
  0
VERTEX
  8
0
  6
CONTINUOUS
 62
     0
  5
4EE
 10
-230.054876
 20
52.026528
 30
0.0
  0
SEQEND
  8
0
  6
CONTINUOUS
 62
     0
  5
4EF
  0
POLYLINE
  8
0
  6
CONTINUOUS
 62
     0
  5
4F0
 66
     1
 10
0.0
 20
0.0
 30
0.0
  0
VERTEX
  8
0
  6
CONTINUOUS
 62
     0
  5
4F1
 10
-230.054876
 20
52.026528
 30
0.0
  0
VERTEX
  8
0
  6
CONTINUOUS
 62
     0
  5
4F2
 10
-230.054876
 20
52.026528
 30
0.0
  0
SEQEND
  8
0
  6
CONTINUOUS
 62
     0
  5
4F3
  0
POLYLINE
  8
0
  6
CONTINUOUS
 62
     0
  5
4F4
 66
     1
 10
0.0
 20
0.0
 30
0.0
  0
VERTEX
  8
0
  6
CONTINUOUS
 62
     0
  5
4F5
 10
-230.032237
 20
53.121899
 30
0.0
  0
VERTEX
  8
0
  6
CONTINUOUS
 62
     0
  5
4F6
 10
-230.054876
 20
53.121899
 30
0.0
  0
VERTEX
  8
0
  6
CONTINUOUS
 62
     0
  5
4F7
 10
-230.054876
 20
52.941899
 30
0.0
  0
VERTEX
  8
0
  6
CONTINUOUS
 62
     0
  5
4F8
 10
-230.054876
 20
52.941899
 30
0.0
  0
SEQEND
  8
0
  6
CONTINUOUS
 62
     0
  5
4F9
  0
POLYLINE
  8
0
  6
CONTINUOUS
 62
     0
  5
4FB
 66
     1
 10
0.0
 20
0.0
 30
0.0
 70
     1
  0
VERTEX
  8
0
  6
CONTINUOUS
 62
     0
  5
4FC
 10
-230.054876
 20
52.206528
 30
0.0
  0
VERTEX
  8
0
  6
CONTINUOUS
 62
     0
  5
4FD
 10
-230.078276
 20
52.026528
 30
0.0
  0
VERTEX
  8
0
  6
CONTINUOUS
 62
     0
  5
4FE
 10
-230.031476
 20
52.026528
 30
0.0
  0
SEQEND
  8
0
  6
CONTINUOUS
 62
     0
  5
4FF
  0
TEXT
  8
0
  6
CONTINUOUS
 62
     0
  5
500
 10
-230.002237
 20
53.018519
 30
0.0
 40
0.18
  1
9/16
 72
     1
 11
-229.76143
 21
53.108519
 31
0.0
 73
     2
  0
TEXT
  8
0
  6
CONTINUOUS
 62
     0
  5
501
 10
-229.520623
 20
53.018519
 30
0.0
 40
0.18
  1
in
 11
-229.520623
 21
53.198519
 31
0.0
 73
     3
  0
ENDBLK
  8
0
  5
502
  0
BLOCK
  8
0
  5
505
  2
*D25
 70
     1
 10
0.0
 20
0.0
 30
0.0
  3
*D25
  0
LINE
  8
0
  6
CONTINUOUS
 62
     0
  5
506
 10
-228.451167
 20
52.206528
 30
0.0
 11
-228.234997
 21
52.206528
 31
0.0
  0
LINE
  8
0
  6
CONTINUOUS
 62
     0
  5
507
 10
-228.451167
 20
52.610056
 30
0.0
 11
-228.234997
 21
52.610056
 31
0.0
  0
POLYLINE
  8
0
  6
CONTINUOUS
 62
     0
  5
508
 66
     1
 10
0.0
 20
0.0
 30
0.0
  0
VERTEX
  8
0
  6
CONTINUOUS
 62
     0
  5
509
 10
-228.414997
 20
51.846528
 30
0.0
  0
VERTEX
  8
0
  6
CONTINUOUS
 62
     0
  5
50A
 10
-228.414997
 20
52.026528
 30
0.0
  0
SEQEND
  8
0
  6
CONTINUOUS
 62
     0
  5
50B
  0
POLYLINE
  8
0
  6
CONTINUOUS
 62
     0
  5
50C
 66
     1
 10
0.0
 20
0.0
 30
0.0
  0
VERTEX
  8
0
  6
CONTINUOUS
 62
     0
  5
50D
 10
-228.414997
 20
52.026528
 30
0.0
  0
VERTEX
  8
0
  6
CONTINUOUS
 62
     0
  5
50E
 10
-228.414997
 20
52.026528
 30
0.0
  0
SEQEND
  8
0
  6
CONTINUOUS
 62
     0
  5
50F
  0
POLYLINE
  8
0
  6
CONTINUOUS
 62
     0
  5
510
 66
     1
 10
0.0
 20
0.0
 30
0.0
  0
VERTEX
  8
0
  6
CONTINUOUS
 62
     0
  5
511
 10
-228.234997
 20
52.970056
 30
0.0
  0
VERTEX
  8
0
  6
CONTINUOUS
 62
     0
  5
512
 10
-228.414997
 20
52.970056
 30
0.0
  0
VERTEX
  8
0
  6
CONTINUOUS
 62
     0
  5
513
 10
-228.414997
 20
52.790056
 30
0.0
  0
VERTEX
  8
0
  6
CONTINUOUS
 62
     0
  5
514
 10
-228.414997
 20
52.790056
 30
0.0
  0
SEQEND
  8
0
  6
CONTINUOUS
 62
     0
  5
515
  0
POLYLINE
  8
0
  6
CONTINUOUS
 62
     0
  5
517
 66
     1
 10
0.0
 20
0.0
 30
0.0
 70
     1
  0
VERTEX
  8
0
  6
CONTINUOUS
 62
     0
  5
518
 10
-228.414997
 20
52.610056
 30
0.0
  0
VERTEX
  8
0
  6
CONTINUOUS
 62
     0
  5
519
 10
-228.391597
 20
52.790056
 30
0.0
  0
VERTEX
  8
0
  6
CONTINUOUS
 62
     0
  5
51A
 10
-228.438397
 20
52.790056
 30
0.0
  0
SEQEND
  8
0
  6
CONTINUOUS
 62
     0
  5
51B
  0
POLYLINE
  8
0
  6
CONTINUOUS
 62
     0
  5
51D
 66
     1
 10
0.0
 20
0.0
 30
0.0
 70
     1
  0
VERTEX
  8
0
  6
CONTINUOUS
 62
     0
  5
51E
 10
-228.414997
 20
52.206528
 30
0.0
  0
VERTEX
  8
0
  6
CONTINUOUS
 62
     0
  5
51F
 10
-228.438397
 20
52.026528
 30
0.0
  0
VERTEX
  8
0
  6
CONTINUOUS
 62
     0
  5
520
 10
-228.391597
 20
52.026528
 30
0.0
  0
SEQEND
  8
0
  6
CONTINUOUS
 62
     0
  5
521
  0
TEXT
  8
0
  6
CONTINUOUS
 62
     0
  5
522
 10
-228.144997
 20
52.880056
 30
0.0
 40
0.18
  1
3/8
 72
     1
 11
-227.971915
 21
52.970056
 31
0.0
 73
     2
  0
TEXT
  8
0
  6
CONTINUOUS
 62
     0
  5
523
 10
-227.798833
 20
52.880056
 30
0.0
 40
0.18
  1
in
 11
-227.798833
 21
53.060056
 31
0.0
 73
     3
  0
ENDBLK
  8
0
  5
524
  0
BLOCK
  8
0
  5
52D
  2
*D26
 70
     1
 10
0.0
 20
0.0
 30
0.0
  3
*D26
  0
LINE
  8
0
  6
CONTINUOUS
 62
     0
  5
52E
 10
-188.446715
 20
77.225786
 30
0.0
 11
-188.262095
 21
77.225786
 31
0.0
  0
POLYLINE
  8
0
  6
CONTINUOUS
 62
     0
  5
52F
 66
     1
 10
0.0
 20
0.0
 30
0.0
  0
VERTEX
  8
0
  6
CONTINUOUS
 62
     0
  5
530
 10
-188.405261
 20
76.212086
 30
0.0
  0
VERTEX
  8
0
  6
CONTINUOUS
 62
     0
  5
531
 10
-188.576886
 20
76.212086
 30
0.0
  0
SEQEND
  8
0
  6
CONTINUOUS
 62
     0
  5
532
  0
POLYLINE
  8
0
  6
CONTINUOUS
 62
     0
  5
533
 66
     1
 10
0.0
 20
0.0
 30
0.0
  0
VERTEX
  8
0
  6
CONTINUOUS
 62
     0
  5
534
 10
-188.442095
 20
77.045786
 30
0.0
  0
VERTEX
  8
0
  6
CONTINUOUS
 62
     0
  5
535
 10
-188.442095
 20
77.045786
 30
0.0
  0
VERTEX
  8
0
  6
CONTINUOUS
 62
     0
  5
536
 10
-188.442095
 20
77.045786
 30
0.0
  0
VERTEX
  8
0
  6
CONTINUOUS
 62
     0
  5
537
 10
-188.442095
 20
76.898936
 30
0.0
  0
SEQEND
  8
0
  6
CONTINUOUS
 62
     0
  5
538
  0
POLYLINE
  8
0
  6
CONTINUOUS
 62
     0
  5
539
 66
     1
 10
0.0
 20
0.0
 30
0.0
  0
VERTEX
  8
0
  6
CONTINUOUS
 62
     0
  5
53A
 10
-188.442095
 20
76.392086
 30
0.0
  0
VERTEX
  8
0
  6
CONTINUOUS
 62
     0
  5
53B
 10
-188.442095
 20
76.392086
 30
0.0
  0
VERTEX
  8
0
  6
CONTINUOUS
 62
     0
  5
53C
 10
-188.442095
 20
76.392086
 30
0.0
  0
VERTEX
  8
0
  6
CONTINUOUS
 62
     0
  5
53D
 10
-188.442095
 20
76.538936
 30
0.0
  0
SEQEND
  8
0
  6
CONTINUOUS
 62
     0
  5
53E
  0
POLYLINE
  8
0
  6
CONTINUOUS
 62
     0
  5
540
 66
     1
 10
0.0
 20
0.0
 30
0.0
 70
     1
  0
VERTEX
  8
0
  6
CONTINUOUS
 62
     0
  5
541
 10
-188.442095
 20
77.225786
 30
0.0
  0
VERTEX
  8
0
  6
CONTINUOUS
 62
     0
  5
542
 10
-188.465495
 20
77.045786
 30
0.0
  0
VERTEX
  8
0
  6
CONTINUOUS
 62
     0
  5
543
 10
-188.418695
 20
77.045786
 30
0.0
  0
SEQEND
  8
0
  6
CONTINUOUS
 62
     0
  5
544
  0
POLYLINE
  8
0
  6
CONTINUOUS
 62
     0
  5
546
 66
     1
 10
0.0
 20
0.0
 30
0.0
 70
     1
  0
VERTEX
  8
0
  6
CONTINUOUS
 62
     0
  5
547
 10
-188.442095
 20
76.212086
 30
0.0
  0
VERTEX
  8
0
  6
CONTINUOUS
 62
     0
  5
548
 10
-188.418695
 20
76.392086
 30
0.0
  0
VERTEX
  8
0
  6
CONTINUOUS
 62
     0
  5
549
 10
-188.465495
 20
76.392086
 30
0.0
  0
SEQEND
  8
0
  6
CONTINUOUS
 62
     0
  5
54A
  0
TEXT
  8
0
  6
CONTINUOUS
 62
     0
  5
54B
 10
-188.95305
 20
75.942086
 30
0.0
 40
0.18
  1
1
 72
     1
 11
-188.885325
 21
76.032086
 31
0.0
 73
     2
  0
TEXT
  8
0
  6
CONTINUOUS
 62
     0
  5
54C
 10
-188.8176
 20
75.942086
 30
0.0
 40
0.18
  1
in
 11
-188.8176
 21
76.122086
 31
0.0
 73
     3
  0
ENDBLK
  8
0
  5
54D
  0
BLOCK
  8
0
  5
550
  2
*D27
 70
     1
 10
0.0
 20
0.0
 30
0.0
  3
*D27
  0
LINE
  8
0
  6
CONTINUOUS
 62
     0
  5
551
 10
-203.260761
 20
77.2172
 30
0.0
 11
-203.260761
 21
77.2172
 31
0.0
  0
LINE
  8
0
  6
CONTINUOUS
 62
     0
  5
552
 10
-203.260761
 20
75.951037
 30
0.0
 11
-203.260761
 21
75.951037
 31
0.0
  0
POLYLINE
  8
0
  6
CONTINUOUS
 62
     0
  5
553
 66
     1
 10
0.0
 20
0.0
 30
0.0
  0
VERTEX
  8
0
  6
CONTINUOUS
 62
     0
  5
554
 10
-203.260761
 20
77.0372
 30
0.0
  0
VERTEX
  8
0
  6
CONTINUOUS
 62
     0
  5
555
 10
-203.260761
 20
77.0372
 30
0.0
  0
VERTEX
  8
0
  6
CONTINUOUS
 62
     0
  5
556
 10
-203.260761
 20
77.0372
 30
0.0
  0
VERTEX
  8
0
  6
CONTINUOUS
 62
     0
  5
557
 10
-203.260761
 20
76.764119
 30
0.0
  0
SEQEND
  8
0
  6
CONTINUOUS
 62
     0
  5
558
  0
POLYLINE
  8
0
  6
CONTINUOUS
 62
     0
  5
559
 66
     1
 10
0.0
 20
0.0
 30
0.0
  0
VERTEX
  8
0
  6
CONTINUOUS
 62
     0
  5
55A
 10
-203.260761
 20
76.131037
 30
0.0
  0
VERTEX
  8
0
  6
CONTINUOUS
 62
     0
  5
55B
 10
-203.260761
 20
76.131037
 30
0.0
  0
VERTEX
  8
0
  6
CONTINUOUS
 62
     0
  5
55C
 10
-203.260761
 20
76.131037
 30
0.0
  0
VERTEX
  8
0
  6
CONTINUOUS
 62
     0
  5
55D
 10
-203.260761
 20
76.404119
 30
0.0
  0
SEQEND
  8
0
  6
CONTINUOUS
 62
     0
  5
55E
  0
POLYLINE
  8
0
  6
CONTINUOUS
 62
     0
  5
560
 66
     1
 10
0.0
 20
0.0
 30
0.0
 70
     1
  0
VERTEX
  8
0
  6
CONTINUOUS
 62
     0
  5
561
 10
-203.260761
 20
77.2172
 30
0.0
  0
VERTEX
  8
0
  6
CONTINUOUS
 62
     0
  5
562
 10
-203.284161
 20
77.0372
 30
0.0
  0
VERTEX
  8
0
  6
CONTINUOUS
 62
     0
  5
563
 10
-203.237361
 20
77.0372
 30
0.0
  0
SEQEND
  8
0
  6
CONTINUOUS
 62
     0
  5
564
  0
POLYLINE
  8
0
  6
CONTINUOUS
 62
     0
  5
566
 66
     1
 10
0.0
 20
0.0
 30
0.0
 70
     1
  0
VERTEX
  8
0
  6
CONTINUOUS
 62
     0
  5
567
 10
-203.260761
 20
75.951037
 30
0.0
  0
VERTEX
  8
0
  6
CONTINUOUS
 62
     0
  5
568
 10
-203.237361
 20
76.131037
 30
0.0
  0
VERTEX
  8
0
  6
CONTINUOUS
 62
     0
  5
569
 10
-203.284161
 20
76.131037
 30
0.0
  0
SEQEND
  8
0
  6
CONTINUOUS
 62
     0
  5
56A
  0
TEXT
  8
0
  6
CONTINUOUS
 62
     0
  5
56B
 10
-204.046339
 20
75.641197
 30
0.0
 40
0.18
  1
1 1/4
 72
     1
 11
-203.77167
 21
75.731197
 31
0.0
 73
     2
  0
TEXT
  8
0
  6
CONTINUOUS
 62
     0
  5
56C
 10
-203.497001
 20
75.641197
 30
0.0
 40
0.18
  1
in
 11
-203.497001
 21
75.821197
 31
0.0
 73
     3
  0
ENDBLK
  8
0
  5
56D
  0
BLOCK
  8
0
  5
570
  2
*D28
 70
     1
 10
0.0
 20
0.0
 30
0.0
  3
*D28
  0
LINE
  8
0
  6
CONTINUOUS
 62
     0
  5
571
 10
-213.371539
 20
76.975786
 30
0.0
 11
-213.631692
 21
76.975786
 31
0.0
  0
LINE
  8
0
  6
CONTINUOUS
 62
     0
  5
572
 10
-213.371539
 20
77.225786
 30
0.0
 11
-213.631692
 21
77.225786
 31
0.0
  0
POLYLINE
  8
0
  6
CONTINUOUS
 62
     0
  5
573
 66
     1
 10
0.0
 20
0.0
 30
0.0
  0
VERTEX
  8
0
  6
CONTINUOUS
 62
     0
  5
574
 10
-213.451692
 20
76.615786
 30
0.0
  0
VERTEX
  8
0
  6
CONTINUOUS
 62
     0
  5
575
 10
-213.451692
 20
76.795786
 30
0.0
  0
SEQEND
  8
0
  6
CONTINUOUS
 62
     0
  5
576
  0
POLYLINE
  8
0
  6
CONTINUOUS
 62
     0
  5
577
 66
     1
 10
0.0
 20
0.0
 30
0.0
  0
VERTEX
  8
0
  6
CONTINUOUS
 62
     0
  5
578
 10
-213.451692
 20
76.795786
 30
0.0
  0
VERTEX
  8
0
  6
CONTINUOUS
 62
     0
  5
579
 10
-213.451692
 20
76.795786
 30
0.0
  0
SEQEND
  8
0
  6
CONTINUOUS
 62
     0
  5
57A
  0
POLYLINE
  8
0
  6
CONTINUOUS
 62
     0
  5
57B
 66
     1
 10
0.0
 20
0.0
 30
0.0
  0
VERTEX
  8
0
  6
CONTINUOUS
 62
     0
  5
57C
 10
-213.271692
 20
77.585786
 30
0.0
  0
VERTEX
  8
0
  6
CONTINUOUS
 62
     0
  5
57D
 10
-213.451692
 20
77.585786
 30
0.0
  0
VERTEX
  8
0
  6
CONTINUOUS
 62
     0
  5
57E
 10
-213.451692
 20
77.405786
 30
0.0
  0
VERTEX
  8
0
  6
CONTINUOUS
 62
     0
  5
57F
 10
-213.451692
 20
77.405786
 30
0.0
  0
SEQEND
  8
0
  6
CONTINUOUS
 62
     0
  5
580
  0
POLYLINE
  8
0
  6
CONTINUOUS
 62
     0
  5
582
 66
     1
 10
0.0
 20
0.0
 30
0.0
 70
     1
  0
VERTEX
  8
0
  6
CONTINUOUS
 62
     0
  5
583
 10
-213.451692
 20
77.225786
 30
0.0
  0
VERTEX
  8
0
  6
CONTINUOUS
 62
     0
  5
584
 10
-213.428292
 20
77.405786
 30
0.0
  0
VERTEX
  8
0
  6
CONTINUOUS
 62
     0
  5
585
 10
-213.475092
 20
77.405786
 30
0.0
  0
SEQEND
  8
0
  6
CONTINUOUS
 62
     0
  5
586
  0
POLYLINE
  8
0
  6
CONTINUOUS
 62
     0
  5
588
 66
     1
 10
0.0
 20
0.0
 30
0.0
 70
     1
  0
VERTEX
  8
0
  6
CONTINUOUS
 62
     0
  5
589
 10
-213.451692
 20
76.975786
 30
0.0
  0
VERTEX
  8
0
  6
CONTINUOUS
 62
     0
  5
58A
 10
-213.475092
 20
76.795786
 30
0.0
  0
VERTEX
  8
0
  6
CONTINUOUS
 62
     0
  5
58B
 10
-213.428292
 20
76.795786
 30
0.0
  0
SEQEND
  8
0
  6
CONTINUOUS
 62
     0
  5
58C
  0
TEXT
  8
0
  6
CONTINUOUS
 62
     0
  5
58D
 10
-214.068004
 20
76.423999
 30
0.0
 40
0.18
  1
1/4
 72
     1
 11
-213.894922
 21
76.513999
 31
0.0
 73
     2
  0
TEXT
  8
0
  6
CONTINUOUS
 62
     0
  5
58E
 10
-213.72184
 20
76.423999
 30
0.0
 40
0.18
  1
in
 11
-213.72184
 21
76.603999
 31
0.0
 73
     3
  0
ENDBLK
  8
0
  5
58F
  0
BLOCK
  8
0
  5
592
  2
*D29
 70
     1
 10
0.0
 20
0.0
 30
0.0
  3
*D29
  0
LINE
  8
0
  6
CONTINUOUS
 62
     0
  5
593
 10
-181.892822
 20
74.599808
 30
0.0
 11
-186.924739
 21
76.332436
 31
0.0
  0
LINE
  8
0
  6
CONTINUOUS
 62
     0
  5
594
 10
-187.919581
 20
76.975786
 30
0.0
 11
-186.457079
 21
76.975786
 31
0.0
  0
CIRCLE
  8
0
  6
CONTINUOUS
 62
     0
  5
595
 10
-188.793164
 20
76.975786
 30
0.0
 40
0.0
  0
CIRCLE
  8
0
  6
CONTINUOUS
 62
     0
  5
596
 10
-188.793164
 20
76.975786
 30
0.0
 40
0.0
  0
LINE
  8
0
  6
CONTINUOUS
 62
     0
  5
597
 10
-186.754545
 20
76.273833
 30
0.0
 11
-186.754545
 21
76.273833
 31
0.0
  0
LINE
  8
0
  6
CONTINUOUS
 62
     0
  5
598
 10
-186.637079
 20
76.975786
 30
0.0
 11
-186.637079
 21
76.975786
 31
0.0
  0
TEXT
  8
0
  6
CONTINUOUS
 62
     0
  5
599
 10
-186.856265
 20
76.529929
 30
0.0
 40
0.18
  1
19°
 72
     1
 11
-186.666648
 21
76.619929
 31
0.0
 73
     2
  0
ENDBLK
  8
0
  5
59A
  0
BLOCK
  8
0
  5
59D
  2
*D30
 70
     1
 10
0.0
 20
0.0
 30
0.0
  3
*D30
  0
LINE
  8
0
  6
CONTINUOUS
 62
     0
  5
59E
 10
-181.892822
 20
74.599808
 30
0.0
 11
-182.241456
 21
74.719853
 31
0.0
  0
LINE
  8
0
  6
CONTINUOUS
 62
     0
  5
59F
 10
-182.075954
 20
74.067955
 30
0.0
 11
-182.424588
 21
74.188
 31
0.0
  0
POLYLINE
  8
0
  6
CONTINUOUS
 62
     0
  5
5A0
 66
     1
 10
0.0
 20
0.0
 30
0.0
  0
VERTEX
  8
0
  6
CONTINUOUS
 62
     0
  5
5A1
 10
-181.954058
 20
75.001637
 30
0.0
  0
VERTEX
  8
0
  6
CONTINUOUS
 62
     0
  5
5A2
 10
-182.012661
 20
74.831444
 30
0.0
  0
SEQEND
  8
0
  6
CONTINUOUS
 62
     0
  5
5A3
  0
POLYLINE
  8
0
  6
CONTINUOUS
 62
     0
  5
5A4
 66
     1
 10
0.0
 20
0.0
 30
0.0
  0
VERTEX
  8
0
  6
CONTINUOUS
 62
     0
  5
5A5
 10
-182.012661
 20
74.831444
 30
0.0
  0
VERTEX
  8
0
  6
CONTINUOUS
 62
     0
  5
5A6
 10
-182.012661
 20
74.831444
 30
0.0
  0
SEQEND
  8
0
  6
CONTINUOUS
 62
     0
  5
5A7
  0
POLYLINE
  8
0
  6
CONTINUOUS
 62
     0
  5
5A8
 66
     1
 10
0.0
 20
0.0
 30
0.0
  0
VERTEX
  8
0
  6
CONTINUOUS
 62
     0
  5
5A9
 10
-182.5516
 20
73.789011
 30
0.0
  0
VERTEX
  8
0
  6
CONTINUOUS
 62
     0
  5
5AA
 10
-182.3716
 20
73.789011
 30
0.0
  0
VERTEX
  8
0
  6
CONTINUOUS
 62
     0
  5
5AB
 10
-182.312997
 20
73.959204
 30
0.0
  0
VERTEX
  8
0
  6
CONTINUOUS
 62
     0
  5
5AC
 10
-182.312997
 20
73.959204
 30
0.0
  0
SEQEND
  8
0
  6
CONTINUOUS
 62
     0
  5
5AD
  0
POLYLINE
  8
0
  6
CONTINUOUS
 62
     0
  5
5AF
 66
     1
 10
0.0
 20
0.0
 30
0.0
 70
     1
  0
VERTEX
  8
0
  6
CONTINUOUS
 62
     0
  5
5B0
 10
-182.254395
 20
74.129397
 30
0.0
  0
VERTEX
  8
0
  6
CONTINUOUS
 62
     0
  5
5B1
 10
-182.335122
 20
73.966822
 30
0.0
  0
VERTEX
  8
0
  6
CONTINUOUS
 62
     0
  5
5B2
 10
-182.290872
 20
73.951586
 30
0.0
  0
SEQEND
  8
0
  6
CONTINUOUS
 62
     0
  5
5B3
  0
POLYLINE
  8
0
  6
CONTINUOUS
 62
     0
  5
5B5
 66
     1
 10
0.0
 20
0.0
 30
0.0
 70
     1
  0
VERTEX
  8
0
  6
CONTINUOUS
 62
     0
  5
5B6
 10
-182.071263
 20
74.66125
 30
0.0
  0
VERTEX
  8
0
  6
CONTINUOUS
 62
     0
  5
5B7
 10
-181.990535
 20
74.823825
 30
0.0
  0
VERTEX
  8
0
  6
CONTINUOUS
 62
     0
  5
5B8
 10
-182.034786
 20
74.839062
 30
0.0
  0
SEQEND
  8
0
  6
CONTINUOUS
 62
     0
  5
5B9
  0
TEXT
  8
0
  6
CONTINUOUS
 62
     0
  5
5BA
 10
-183.333928
 20
73.699011
 30
0.0
 40
0.18
  1
9/16
 72
     1
 11
-183.093121
 21
73.789011
 31
0.0
 73
     2
  0
TEXT
  8
0
  6
CONTINUOUS
 62
     0
  5
5BB
 10
-182.852314
 20
73.699011
 30
0.0
 40
0.18
  1
in
 11
-182.852314
 21
73.879011
 31
0.0
 73
     3
  0
ENDBLK
  8
0
  5
5BC
  0
BLOCK
  8
0
  5
5BF
  2
*D31
 70
     1
 10
0.0
 20
0.0
 30
0.0
  3
*D31
  0
LINE
  8
0
  6
CONTINUOUS
 62
     0
  5
5C0
 10
-192.738955
 20
52.676929
 30
0.0
 11
-192.738955
 21
49.442603
 31
0.0
  0
LINE
  8
0
  6
CONTINUOUS
 62
     0
  5
5C1
 10
-185.21204
 20
52.662143
 30
0.0
 11
-185.21204
 21
49.442603
 31
0.0
  0
POLYLINE
  8
0
  6
CONTINUOUS
 62
     0
  5
5C2
 66
     1
 10
0.0
 20
0.0
 30
0.0
  0
VERTEX
  8
0
  6
CONTINUOUS
 62
     0
  5
5C3
 10
-192.558955
 20
49.622603
 30
0.0
  0
VERTEX
  8
0
  6
CONTINUOUS
 62
     0
  5
5C4
 10
-192.558955
 20
49.622603
 30
0.0
  0
VERTEX
  8
0
  6
CONTINUOUS
 62
     0
  5
5C5
 10
-192.558955
 20
49.622603
 30
0.0
  0
VERTEX
  8
0
  6
CONTINUOUS
 62
     0
  5
5C6
 10
-189.385524
 20
49.622603
 30
0.0
  0
SEQEND
  8
0
  6
CONTINUOUS
 62
     0
  5
5C7
  0
POLYLINE
  8
0
  6
CONTINUOUS
 62
     0
  5
5C8
 66
     1
 10
0.0
 20
0.0
 30
0.0
  0
VERTEX
  8
0
  6
CONTINUOUS
 62
     0
  5
5C9
 10
-185.39204
 20
49.622603
 30
0.0
  0
VERTEX
  8
0
  6
CONTINUOUS
 62
     0
  5
5CA
 10
-185.39204
 20
49.622603
 30
0.0
  0
VERTEX
  8
0
  6
CONTINUOUS
 62
     0
  5
5CB
 10
-185.39204
 20
49.622603
 30
0.0
  0
VERTEX
  8
0
  6
CONTINUOUS
 62
     0
  5
5CC
 10
-188.565471
 20
49.622603
 30
0.0
  0
SEQEND
  8
0
  6
CONTINUOUS
 62
     0
  5
5CD
  0
POLYLINE
  8
0
  6
CONTINUOUS
 62
     0
  5
5CF
 66
     1
 10
0.0
 20
0.0
 30
0.0
 70
     1
  0
VERTEX
  8
0
  6
CONTINUOUS
 62
     0
  5
5D0
 10
-192.738955
 20
49.622603
 30
0.0
  0
VERTEX
  8
0
  6
CONTINUOUS
 62
     0
  5
5D1
 10
-192.558955
 20
49.599203
 30
0.0
  0
VERTEX
  8
0
  6
CONTINUOUS
 62
     0
  5
5D2
 10
-192.558955
 20
49.646003
 30
0.0
  0
SEQEND
  8
0
  6
CONTINUOUS
 62
     0
  5
5D3
  0
POLYLINE
  8
0
  6
CONTINUOUS
 62
     0
  5
5D5
 66
     1
 10
0.0
 20
0.0
 30
0.0
 70
     1
  0
VERTEX
  8
0
  6
CONTINUOUS
 62
     0
  5
5D6
 10
-185.21204
 20
49.622603
 30
0.0
  0
VERTEX
  8
0
  6
CONTINUOUS
 62
     0
  5
5D7
 10
-185.39204
 20
49.646003
 30
0.0
  0
VERTEX
  8
0
  6
CONTINUOUS
 62
     0
  5
5D8
 10
-185.39204
 20
49.599203
 30
0.0
  0
SEQEND
  8
0
  6
CONTINUOUS
 62
     0
  5
5D9
  0
TEXT
  8
0
  6
CONTINUOUS
 62
     0
  5
5DA
 10
-189.355524
 20
49.532603
 30
0.0
 40
0.18
  1
7 1/2
 72
     1
 11
-189.080855
 21
49.622603
 31
0.0
 73
     2
  0
TEXT
  8
0
  6
CONTINUOUS
 62
     0
  5
5DB
 10
-188.806185
 20
49.532603
 30
0.0
 40
0.18
  1
in
 11
-188.806185
 21
49.712603
 31
0.0
 73
     3
  0
ENDBLK
  8
0
  5
5DC
  0
BLOCK
  8
0
  5
5E8
  2
*D32
 70
     1
 10
0.0
 20
0.0
 30
0.0
  3
*D32
  0
LINE
  8
0
  6
CONTINUOUS
 62
     0
  5
5E9
 10
-202.889838
 20
45.044428
 30
0.0
 11
-196.88221
 21
52.20404
 31
0.0
  0
LINE
  8
0
  6
CONTINUOUS
 62
     0
  5
5EA
 10
-202.888175
 20
60.433718
 30
0.0
 11
-196.882166
 21
53.274854
 31
0.0
  0
ARC
  8
0
  6
CONTINUOUS
 62
     0
  5
5EB
 10
-196.432965
 20
52.739428
 30
0.0
 40
0.8789
 50
-168.184515
 51
-141.754853
  0
ARC
  8
0
  6
CONTINUOUS
 62
     0
  5
5EC
 10
-196.432965
 20
52.739428
 30
0.0
 40
0.8789
 50
141.750194
 51
168.179748
  0
POLYLINE
  8
0
  6
CONTINUOUS
 62
     0
  5
5EE
 66
     1
 10
0.0
 20
0.0
 30
0.0
 70
     1
  0
VERTEX
  8
0
  6
CONTINUOUS
 62
     0
  5
5EF
 10
-196.997857
 20
53.412751
 30
0.0
  0
VERTEX
  8
0
  6
CONTINUOUS
 62
     0
  5
5F0
 10
-197.139979
 20
53.29984
 30
0.0
  0
VERTEX
  8
0
  6
CONTINUOUS
 62
     0
  5
5F1
 10
-197.106386
 20
53.267256
 30
0.0
  0
SEQEND
  8
0
  6
CONTINUOUS
 62
     0
  5
5F2
  0
POLYLINE
  8
0
  6
CONTINUOUS
 62
     0
  5
5F4
 66
     1
 10
0.0
 20
0.0
 30
0.0
 70
     1
  0
VERTEX
  8
0
  6
CONTINUOUS
 62
     0
  5
5F5
 10
-196.997912
 20
52.066152
 30
0.0
  0
VERTEX
  8
0
  6
CONTINUOUS
 62
     0
  5
5F6
 10
-197.106429
 20
52.211656
 30
0.0
  0
VERTEX
  8
0
  6
CONTINUOUS
 62
     0
  5
5F7
 10
-197.140025
 20
52.179074
 30
0.0
  0
SEQEND
  8
0
  6
CONTINUOUS
 62
     0
  5
5F8
  0
TEXT
  8
0
  6
CONTINUOUS
 62
     0
  5
5F9
 10
-197.569207
 20
52.649464
 30
0.0
 40
0.18
  1
100°
 72
     1
 11
-197.311866
 21
52.739464
 31
0.0
 73
     2
  0
ENDBLK
  8
0
  5
5FA
  0
BLOCK
  8
0
  5
5FD
  2
*D33
 70
     1
 10
0.0
 20
0.0
 30
0.0
  3
*D33
  0
LINE
  8
0
  6
CONTINUOUS
 62
     0
  5
5FE
 10
-207.123127
 20
52.801929
 30
0.0
 11
-207.123127
 21
53.392267
 31
0.0
  0
LINE
  8
0
  6
CONTINUOUS
 62
     0
  5
5FF
 10
-206.536711
 20
52.801929
 30
0.0
 11
-206.536711
 21
53.392267
 31
0.0
  0
POLYLINE
  8
0
  6
CONTINUOUS
 62
     0
  5
600
 66
     1
 10
0.0
 20
0.0
 30
0.0
  0
VERTEX
  8
0
  6
CONTINUOUS
 62
     0
  5
601
 10
-207.483127
 20
53.212267
 30
0.0
  0
VERTEX
  8
0
  6
CONTINUOUS
 62
     0
  5
602
 10
-207.303127
 20
53.212267
 30
0.0
  0
SEQEND
  8
0
  6
CONTINUOUS
 62
     0
  5
603
  0
POLYLINE
  8
0
  6
CONTINUOUS
 62
     0
  5
604
 66
     1
 10
0.0
 20
0.0
 30
0.0
  0
VERTEX
  8
0
  6
CONTINUOUS
 62
     0
  5
605
 10
-207.303127
 20
53.212267
 30
0.0
  0
VERTEX
  8
0
  6
CONTINUOUS
 62
     0
  5
606
 10
-207.303127
 20
53.212267
 30
0.0
  0
SEQEND
  8
0
  6
CONTINUOUS
 62
     0
  5
607
  0
POLYLINE
  8
0
  6
CONTINUOUS
 62
     0
  5
608
 66
     1
 10
0.0
 20
0.0
 30
0.0
  0
VERTEX
  8
0
  6
CONTINUOUS
 62
     0
  5
609
 10
-205.996711
 20
53.212267
 30
0.0
  0
VERTEX
  8
0
  6
CONTINUOUS
 62
     0
  5
60A
 10
-206.176711
 20
53.212267
 30
0.0
  0
VERTEX
  8
0
  6
CONTINUOUS
 62
     0
  5
60B
 10
-206.356711
 20
53.212267
 30
0.0
  0
VERTEX
  8
0
  6
CONTINUOUS
 62
     0
  5
60C
 10
-206.356711
 20
53.212267
 30
0.0
  0
SEQEND
  8
0
  6
CONTINUOUS
 62
     0
  5
60D
  0
POLYLINE
  8
0
  6
CONTINUOUS
 62
     0
  5
60F
 66
     1
 10
0.0
 20
0.0
 30
0.0
 70
     1
  0
VERTEX
  8
0
  6
CONTINUOUS
 62
     0
  5
610
 10
-206.536711
 20
53.212267
 30
0.0
  0
VERTEX
  8
0
  6
CONTINUOUS
 62
     0
  5
611
 10
-206.356711
 20
53.188867
 30
0.0
  0
VERTEX
  8
0
  6
CONTINUOUS
 62
     0
  5
612
 10
-206.356711
 20
53.235667
 30
0.0
  0
SEQEND
  8
0
  6
CONTINUOUS
 62
     0
  5
613
  0
POLYLINE
  8
0
  6
CONTINUOUS
 62
     0
  5
615
 66
     1
 10
0.0
 20
0.0
 30
0.0
 70
     1
  0
VERTEX
  8
0
  6
CONTINUOUS
 62
     0
  5
616
 10
-207.123127
 20
53.212267
 30
0.0
  0
VERTEX
  8
0
  6
CONTINUOUS
 62
     0
  5
617
 10
-207.303127
 20
53.235667
 30
0.0
  0
VERTEX
  8
0
  6
CONTINUOUS
 62
     0
  5
618
 10
-207.303127
 20
53.188867
 30
0.0
  0
SEQEND
  8
0
  6
CONTINUOUS
 62
     0
  5
619
  0
TEXT
  8
0
  6
CONTINUOUS
 62
     0
  5
61A
 10
-205.644838
 20
53.122267
 30
0.0
 40
0.18
  1
9/16
 72
     1
 11
-205.404031
 21
53.212267
 31
0.0
 73
     2
  0
TEXT
  8
0
  6
CONTINUOUS
 62
     0
  5
61B
 10
-205.163224
 20
53.122267
 30
0.0
 40
0.18
  1
in
 11
-205.163224
 21
53.302267
 31
0.0
 73
     3
  0
ENDBLK
  8
0
  5
61C
  0
BLOCK
  8
0
  5
61F
  2
*D34
 70
     1
 10
0.0
 20
0.0
 30
0.0
  3
*D34
  0
LINE
  8
0
  6
CONTINUOUS
 62
     0
  5
620
 10
-185.200372
 20
52.676929
 30
0.0
 11
-185.200372
 21
51.796098
 31
0.0
  0
LINE
  8
0
  6
CONTINUOUS
 62
     0
  5
621
 10
-187.193085
 20
52.676929
 30
0.0
 11
-187.193085
 21
51.796098
 31
0.0
  0
POLYLINE
  8
0
  6
CONTINUOUS
 62
     0
  5
622
 66
     1
 10
0.0
 20
0.0
 30
0.0
  0
VERTEX
  8
0
  6
CONTINUOUS
 62
     0
  5
623
 10
-185.380372
 20
51.976098
 30
0.0
  0
VERTEX
  8
0
  6
CONTINUOUS
 62
     0
  5
624
 10
-185.380372
 20
51.976098
 30
0.0
  0
VERTEX
  8
0
  6
CONTINUOUS
 62
     0
  5
625
 10
-185.380372
 20
51.976098
 30
0.0
  0
VERTEX
  8
0
  6
CONTINUOUS
 62
     0
  5
626
 10
-185.993646
 20
51.976098
 30
0.0
  0
SEQEND
  8
0
  6
CONTINUOUS
 62
     0
  5
627
  0
POLYLINE
  8
0
  6
CONTINUOUS
 62
     0
  5
628
 66
     1
 10
0.0
 20
0.0
 30
0.0
  0
VERTEX
  8
0
  6
CONTINUOUS
 62
     0
  5
629
 10
-187.013085
 20
51.976098
 30
0.0
  0
VERTEX
  8
0
  6
CONTINUOUS
 62
     0
  5
62A
 10
-187.013085
 20
51.976098
 30
0.0
  0
VERTEX
  8
0
  6
CONTINUOUS
 62
     0
  5
62B
 10
-187.013085
 20
51.976098
 30
0.0
  0
VERTEX
  8
0
  6
CONTINUOUS
 62
     0
  5
62C
 10
-186.399811
 20
51.976098
 30
0.0
  0
SEQEND
  8
0
  6
CONTINUOUS
 62
     0
  5
62D
  0
POLYLINE
  8
0
  6
CONTINUOUS
 62
     0
  5
62F
 66
     1
 10
0.0
 20
0.0
 30
0.0
 70
     1
  0
VERTEX
  8
0
  6
CONTINUOUS
 62
     0
  5
630
 10
-185.200372
 20
51.976098
 30
0.0
  0
VERTEX
  8
0
  6
CONTINUOUS
 62
     0
  5
631
 10
-185.380372
 20
51.999498
 30
0.0
  0
VERTEX
  8
0
  6
CONTINUOUS
 62
     0
  5
632
 10
-185.380372
 20
51.952698
 30
0.0
  0
SEQEND
  8
0
  6
CONTINUOUS
 62
     0
  5
633
  0
POLYLINE
  8
0
  6
CONTINUOUS
 62
     0
  5
635
 66
     1
 10
0.0
 20
0.0
 30
0.0
 70
     1
  0
VERTEX
  8
0
  6
CONTINUOUS
 62
     0
  5
636
 10
-187.193085
 20
51.976098
 30
0.0
  0
VERTEX
  8
0
  6
CONTINUOUS
 62
     0
  5
637
 10
-187.013085
 20
51.952698
 30
0.0
  0
VERTEX
  8
0
  6
CONTINUOUS
 62
     0
  5
638
 10
-187.013085
 20
51.999498
 30
0.0
  0
SEQEND
  8
0
  6
CONTINUOUS
 62
     0
  5
639
  0
TEXT
  8
0
  6
CONTINUOUS
 62
     0
  5
63A
 10
-187.694242
 20
51.886098
 30
0.0
 40
0.18
  1
2
 72
     1
 11
-187.626517
 21
51.976098
 31
0.0
 73
     2
  0
TEXT
  8
0
  6
CONTINUOUS
 62
     0
  5
63B
 10
-187.558792
 20
51.886098
 30
0.0
 40
0.18
  1
in
 11
-187.558792
 21
52.066098
 31
0.0
 73
     3
  0
ENDBLK
  8
0
  5
63C
  0
ENDSEC
  0
SECTION
  2
ENTITIES
  0
LINE
  8
0
  5
2E
 10
-181.833727
 20
74.57946
 30
0.0
 11
-182.016859
 21
74.047607
 31
0.0
  0
LINE
  8
0
  5
2F
 10
-188.304011
 20
76.212447
 30
0.0
 11
-182.016859
 21
74.047607
 31
0.0
  0
LINE
  8
0
  5
30
 10
-188.342761
 20
76.7443
 30
0.0
 11
-188.12088
 21
76.7443
 31
0.0
  0
LINE
  8
0
  5
31
 10
-188.12088
 20
76.7443
 30
0.0
 11
-181.833727
 21
74.57946
 31
0.0
  0
LINE
  8
0
  5
32
 10
-188.342761
 20
77.428787
 30
0.0
 11
-188.12088
 21
77.428787
 31
0.0
  0
LINE
  8
0
  5
33
 10
-188.12088
 20
76.7443
 30
0.0
 11
-188.12088
 21
77.428787
 31
0.0
  0
LINE
  8
0
  5
34
 10
-188.342761
 20
77.428787
 30
0.0
 11
-188.342761
 21
76.7443
 31
0.0
  0
LINE
  8
0
  5
35
 10
-179.842509
 20
76.632172
 30
0.0
 11
-178.842509
 21
76.632172
 31
0.0
  0
LINE
  8
0
  5
36
 10
-204.187515
 20
76.064718
 30
0.0
 11
-188.304011
 21
76.212447
 31
0.0
  0
LINE
  8
0
  5
37
 10
-213.309039
 20
77.225786
 30
0.0
 11
-213.309039
 21
76.975786
 31
0.0
  0
LINE
  8
0
  5
38
 10
-213.309039
 20
77.225786
 30
0.0
 11
-188.342761
 21
77.225786
 31
0.0
  0
ARC
  8
0
  5
39
 10
-203.899617
 20
74.111609
 30
0.0
 40
1.974213
 50
98.385303
 51
139.906016
  0
ARC
  8
0
  5
3A
 10
-202.441986
 20
72.672637
 30
0.0
 40
4.019313
 50
137.595773
 51
160.61101
  0
ARC
  8
0
  5
3B
 10
-197.816945
 20
71.610291
 30
0.0
 40
8.750995
 50
164.105035
 51
177.606283
  0
LINE
  8
0
  5
3C
 10
-222.270983
 20
61.117511
 30
0.0
 11
-222.270983
 21
63.086005
 31
0.0
  0
LINE
  8
0
  5
3D
 10
-222.393762
 20
63.085999
 30
0.0
 11
-222.393762
 21
61.117511
 31
0.0
  0
LINE
  8
0
  5
3E
 10
-222.393762
 20
61.117511
 30
0.0
 11
-222.270983
 21
61.117511
 31
0.0
  0
LINE
  8
0
  5
3F
 10
-203.572329
 20
49.553248
 30
0.0
 11
-203.189721
 21
49.460452
 31
0.0
  0
LINE
  8
0
  5
40
 10
-201.371793
 20
58.626266
 30
0.0
 11
-203.572329
 21
49.553248
 31
0.0
  0
LINE
  8
0
  5
41
 10
-201.057529
 20
58.25168
 30
0.0
 11
-203.189721
 21
49.460452
 31
0.0
  0
LINE
  8
0
  5
42
 10
-195.062731
 20
47.34163
 30
0.0
 11
-194.889194
 21
47.626605
 31
0.0
  0
LINE
  8
0
  5
43
 10
-198.294851
 20
50.052014
 30
0.0
 11
-194.889194
 21
47.626605
 31
0.0
  0
LINE
  8
0
  5
44
 10
-198.509418
 20
49.79626
 30
0.0
 11
-195.062731
 21
47.34163
 31
0.0
  0
LINE
  8
0
  5
45
 10
-195.062731
 20
58.137227
 30
0.0
 11
-194.889194
 21
57.852253
 31
0.0
  0
LINE
  8
0
  5
46
 10
-197.468734
 20
45.453116
 30
0.0
 11
-197.234414
 21
45.694803
 31
0.0
  0
LINE
  8
0
  5
47
 10
-200.186537
 20
47.797219
 30
0.0
 11
-197.234414
 21
45.694803
 31
0.0
  0
LINE
  8
0
  5
48
 10
-200.401104
 20
47.541465
 30
0.0
 11
-197.468734
 21
45.453116
 31
0.0
  0
LINE
  8
0
  5
49
 10
-200.186537
 20
57.681639
 30
0.0
 11
-197.234414
 21
59.784055
 31
0.0
  0
LINE
  8
0
  5
4A
 10
-200.401104
 20
57.937392
 30
0.0
 11
-197.468734
 21
60.025741
 31
0.0
  0
LINE
  8
0
  5
4B
 10
-222.164852
 20
76.975786
 30
0.0
 11
-222.164852
 21
77.379314
 31
0.0
  0
LINE
  8
0
  5
4C
 10
-222.270983
 20
77.16507
 30
0.0
 11
-222.270983
 21
77.514517
 31
0.0
  0
LINE
  8
0
  5
4D
 10
-222.164852
 20
77.379314
 30
0.0
 11
-222.270983
 21
77.379314
 31
0.0
  0
LINE
  8
0
  5
4E
 10
-222.393762
 20
77.514517
 30
0.0
 11
-222.393762
 21
77.16507
 31
0.0
  0
LINE
  8
0
  5
4F
 10
-222.393762
 20
77.379314
 30
0.0
 11
-222.822449
 21
77.379314
 31
0.0
  0
LINE
  8
0
  5
50
 10
-222.822449
 20
77.379314
 30
0.0
 11
-222.822449
 21
77.531157
 31
0.0
  0
LINE
  8
0
  5
51
 10
-222.393762
 20
77.16507
 30
0.0
 11
-222.270983
 21
77.16507
 31
0.0
  0
ARC
  8
0
  5
52
 10
-222.332373
 20
77.486611
 30
0.0
 40
0.067434
 50
24.444967
 51
155.555031
  0
LINE
  8
0
  5
53
 10
-223.515423
 20
77.531157
 30
0.0
 11
-223.515423
 21
76.975786
 31
0.0
  0
LINE
  8
0
  6
DASHED2
  5
54
 10
-223.515423
 20
77.416755
 30
0.0
 11
-223.396805
 21
77.416755
 31
0.0
  0
LINE
  8
0
  6
DASHED2
  5
55
 10
-223.396805
 20
77.416755
 30
0.0
 11
-223.396805
 21
77.312204
 31
0.0
  0
LINE
  8
0
  6
DASHED2
  5
56
 10
-223.396805
 20
77.113069
 30
0.0
 11
-223.515423
 21
77.113069
 31
0.0
  0
LINE
  8
0
  6
DASHED2
  5
57
 10
-223.396805
 20
77.21471
 30
0.0
 11
-223.396805
 21
77.113069
 31
0.0
  0
LINE
  8
0
  5
58
 10
-223.515423
 20
77.531157
 30
0.0
 11
-222.822449
 21
77.531157
 31
0.0
  0
LINE
  8
0
  5
59
 10
-223.515423
 20
76.975786
 30
0.0
 11
-222.164852
 21
76.975786
 31
0.0
  0
LINE
  8
0
  6
DASHED2
  5
5A
 10
-223.396805
 20
77.312204
 30
0.0
 11
-222.822449
 21
77.446264
 31
0.0
  0
LINE
  8
0
  6
DASHED2
  5
5B
 10
-223.396805
 20
77.21471
 30
0.0
 11
-222.715064
 21
77.379314
 31
0.0
  0
LINE
  8
0
  5
5C
 10
-223.515423
 20
77.217071
 30
0.0
 11
-222.164852
 21
77.217071
 31
0.0
  0
LINE
  8
0
  5
5D
 10
-186.20037
 20
53.264034
 30
0.0
 11
-185.21204
 21
53.264034
 31
0.0
  0
LINE
  8
0
  5
5E
 10
-186.20037
 20
52.264036
 30
0.0
 11
-186.20037
 21
53.264034
 31
0.0
  0
LINE
  8
0
  5
5F
 10
-185.209895
 20
52.264036
 30
0.0
 11
-186.20037
 21
52.264036
 31
0.0
  0
LINE
  8
0
  5
60
 10
-229.864237
 20
52.447813
 30
0.0
 11
-228.513667
 21
52.447813
 31
0.0
  0
LINE
  8
0
  6
DASHED2
  5
61
 10
-229.74562
 20
52.445452
 30
0.0
 11
-229.74562
 21
52.343811
 31
0.0
  0
LINE
  8
0
  6
DASHED2
  5
62
 10
-229.74562
 20
52.445452
 30
0.0
 11
-229.063879
 21
52.610056
 31
0.0
  0
LINE
  8
0
  6
DASHED2
  5
63
 10
-229.74562
 20
52.542946
 30
0.0
 11
-229.171263
 21
52.677006
 31
0.0
  0
LINE
  8
0
  6
DASHED2
  5
64
 10
-229.74562
 20
52.343811
 30
0.0
 11
-229.864237
 21
52.343811
 31
0.0
  0
LINE
  8
0
  6
DASHED2
  5
65
 10
-229.74562
 20
52.647497
 30
0.0
 11
-229.74562
 21
52.542946
 31
0.0
  0
LINE
  8
0
  6
DASHED2
  5
66
 10
-229.864237
 20
52.647497
 30
0.0
 11
-229.74562
 21
52.647497
 31
0.0
  0
ARC
  8
0
  5
67
 10
-228.681187
 20
52.717353
 30
0.0
 40
0.067434
 50
24.444967
 51
155.555031
  0
LINE
  8
0
  5
68
 10
-228.742577
 20
52.610056
 30
0.0
 11
-229.171263
 21
52.610056
 31
0.0
  0
LINE
  8
0
  6
DASHED2
  5
69
 10
-228.619798
 20
52.395812
 30
0.0
 11
-228.619798
 21
52.443322
 31
0.0
  0
LINE
  8
0
  6
DASHED2
  5
6A
 10
-228.742577
 20
52.395812
 30
0.0
 11
-228.619798
 21
52.395812
 31
0.0
  0
LINE
  8
0
  5
6B
 10
-228.742577
 20
52.745259
 30
0.0
 11
-228.742577
 21
52.449688
 31
0.0
  0
LINE
  8
0
  5
6C
 10
-229.864237
 20
52.761899
 30
0.0
 11
-229.171263
 21
52.761899
 31
0.0
  0
LINE
  8
0
  5
6D
 10
-229.171263
 20
52.610056
 30
0.0
 11
-229.171263
 21
52.761899
 31
0.0
  0
LINE
  8
0
  5
6E
 10
-228.513667
 20
52.610056
 30
0.0
 11
-228.619798
 21
52.610056
 31
0.0
  0
LINE
  8
0
  5
6F
 10
-228.513667
 20
52.206528
 30
0.0
 11
-228.513667
 21
52.610056
 31
0.0
  0
LINE
  8
0
  5
70
 10
-229.864237
 20
52.206528
 30
0.0
 11
-228.513667
 21
52.206528
 31
0.0
  0
LINE
  8
0
  5
71
 10
-229.864237
 20
52.761899
 30
0.0
 11
-229.864237
 21
52.206528
 31
0.0
  0
LINE
  8
0
  5
72
 10
-216.293932
 20
62.705011
 30
0.0
 11
-212.970292
 21
62.705011
 31
0.0
  0
LINE
  8
0
  5
73
 10
-217.593069
 20
62.705011
 30
0.0
 11
-216.684165
 21
62.705011
 31
0.0
  0
LINE
  8
0
  5
74
 10
-225.035144
 20
63.466221
 30
0.0
 11
-221.080786
 21
63.466221
 31
0.0
  0
LINE
  8
0
  5
75
 10
-220.690553
 20
63.466221
 30
0.0
 11
-216.684165
 21
63.466221
 31
0.0
  0
LINE
  8
0
  5
76
 10
-216.293932
 20
63.466221
 30
0.0
 11
-212.970292
 21
63.466221
 31
0.0
  0
LINE
  8
0
  5
77
 10
-229.079477
 20
63.466221
 30
0.0
 11
-225.425376
 21
63.466221
 31
0.0
  0
LINE
  8
0
  5
78
 10
-184.040626
 20
62.489684
 30
0.0
 11
-184.040626
 21
62.292834
 31
0.0
  0
LINE
  8
0
  5
79
 10
-184.139051
 20
62.391259
 30
0.0
 11
-183.942201
 21
62.391259
 31
0.0
  0
CIRCLE
  8
0
  5
7A
 10
-184.040626
 20
62.391259
 30
0.0
 40
0.235342
  0
LINE
  8
0
  5
7B
 10
-186.406503
 20
62.219173
 30
0.0
 11
-186.406503
 21
62.022323
 31
0.0
  0
LINE
  8
0
  5
7C
 10
-186.504928
 20
62.120748
 30
0.0
 11
-186.308078
 21
62.120748
 31
0.0
  0
CIRCLE
  8
0
  5
7D
 10
-186.406503
 20
62.120748
 30
0.0
 40
0.235342
  0
ARC
  8
0
  5
7E
 10
-188.995341
 20
59.169083
 30
0.0
 40
3.215181
 50
38.049594
 51
74.217942
  0
ARC
  8
0
  5
7F
 10
-188.070317
 20
63.920348
 30
0.0
 40
1.251919
 50
-92.314706
 51
-65.972053
  0
ARC
  8
0
  5
80
 10
-183.078716
 20
52.521616
 30
0.0
 40
9.269208
 50
86.216412
 51
111.417413
  0
ARC
  8
0
  5
81
 10
-182.19013
 20
63.977487
 30
0.0
 40
0.356291
 50
-55.820728
 51
35.422017
  0
ARC
  8
0
  5
82
 10
-181.321795
 20
62.719609
 30
0.0
 40
1.172206
 50
124.751342
 51
168.620377
  0
ARC
  8
0
  5
83
 10
-182.484408
 20
63.89192
 30
0.0
 40
0.65352
 50
26.546247
 51
92.335449
  0
LINE
  8
0
  5
84
 10
-184.037656
 20
63.653643
 30
0.0
 11
-183.840806
 21
63.653643
 31
0.0
  0
CIRCLE
  8
0
  5
85
 10
-183.939231
 20
63.653643
 30
0.0
 40
0.235342
  0
LINE
  8
0
  5
86
 10
-183.939231
 20
63.752068
 30
0.0
 11
-183.939231
 21
63.555218
 31
0.0
  0
ARC
  8
0
  5
87
 10
-174.902875
 20
-133.867514
 30
0.0
 40
198.558228
 50
92.195942
 51
92.512829
  0
CIRCLE
  8
0
  5
88
 10
-186.305108
 20
63.924154
 30
0.0
 40
0.235342
  0
LINE
  8
0
  5
89
 10
-186.305108
 20
64.022579
 30
0.0
 11
-186.305108
 21
63.825729
 31
0.0
  0
LINE
  8
0
  5
8A
 10
-186.403533
 20
63.924154
 30
0.0
 11
-186.206683
 21
63.924154
 31
0.0
  0
ARC
  8
0
  5
8B
 10
-187.783958
 20
63.040737
 30
0.0
 40
0.422066
 50
6.412014
 51
58.041691
  0
ARC
  8
0
  5
8C
 10
-188.995341
 20
67.006662
 30
0.0
 40
3.215181
 50
-74.217942
 51
-38.049594
  0
ARC
  8
0
  5
8D
 10
-188.070317
 20
62.255396
 30
0.0
 40
1.251919
 50
65.972053
 51
92.314706
  0
ARC
  8
0
  5
8E
 10
-183.881055
 20
71.040114
 30
0.0
 40
6.546016
 50
-113.234797
 51
-87.611847
  0
LINE
  8
0
  5
8F
 10
-188.12088
 20
63.912683
 30
0.0
 11
-188.12088
 21
62.238455
 31
0.0
  0
ARC
  8
0
  5
90
 10
-187.783958
 20
63.135008
 30
0.0
 40
0.422066
 50
-58.041691
 51
-6.412014
  0
ARC
  8
0
  5
91
 10
-180.734042
 20
62.366488
 30
0.0
 40
1.832596
 50
161.403831
 51
198.974602
  0
LINE
  8
0
  5
92
 10
-207.743138
 20
76.975786
 30
0.0
 11
-207.743138
 21
71.975786
 31
0.0
  0
LINE
  8
0
  6
DASHED2
  5
93
 10
-209.735851
 20
76.975786
 30
0.0
 11
-209.735851
 21
71.975786
 31
0.0
  0
LINE
  8
0
  6
DASHED2
  5
94
 10
-229.079477
 20
76.975786
 30
0.0
 11
-229.079477
 21
71.975786
 31
0.0
  0
LINE
  8
0
  5
95
 10
-229.665893
 20
76.975786
 30
0.0
 11
-229.665893
 21
71.975786
 31
0.0
  0
LINE
  8
0
  5
96
 10
-229.665893
 20
71.975786
 30
0.0
 11
-206.560304
 21
71.975786
 31
0.0
  0
LINE
  8
0
  5
97
 10
-229.665893
 20
76.975786
 30
0.0
 11
-188.342761
 21
76.975786
 31
0.0
  0
LINE
  8
0
  5
98
 10
-207.923366
 20
64.586672
 30
0.0
 11
-209.735851
 21
64.586672
 31
0.0
  0
LINE
  8
0
  5
99
 10
-209.735851
 20
64.586672
 30
0.0
 11
-209.735851
 21
64.287235
 31
0.0
  0
LINE
  8
0
  5
9A
 10
-229.079477
 20
64.448753
 30
0.0
 11
-229.467843
 21
64.448753
 31
0.0
  0
LINE
  8
0
  5
9B
 10
-229.079477
 20
63.085616
 30
0.0
 11
-229.079477
 21
64.448753
 31
0.0
  0
LINE
  8
0
  5
9C
 10
-211.897311
 20
64.324689
 30
0.0
 11
-211.897311
 21
68.08704
 31
0.0
  0
LINE
  8
0
  5
9D
 10
-216.293932
 20
60.973327
 30
0.0
 11
-216.293932
 21
68.245852
 31
0.0
  0
LINE
  8
0
  5
9E
 10
-220.690553
 20
63.085616
 30
0.0
 11
-220.690553
 21
71.206903
 31
0.0
  0
LINE
  8
0
  5
9F
 10
-225.035144
 20
63.085616
 30
0.0
 11
-225.035144
 21
70.69601
 31
0.0
  0
LINE
  8
0
  5
A0
 10
-212.287543
 20
64.331451
 30
0.0
 11
-212.287543
 21
67.942458
 31
0.0
  0
LINE
  8
0
  5
A1
 10
-216.684165
 20
61.209555
 30
0.0
 11
-216.684165
 21
68.603596
 31
0.0
  0
LINE
  8
0
  5
A2
 10
-221.080786
 20
63.085616
 30
0.0
 11
-221.080786
 21
71.297615
 31
0.0
  0
LINE
  8
0
  5
A3
 10
-225.425376
 20
63.085616
 30
0.0
 11
-225.425376
 21
70.471933
 31
0.0
  0
LINE
  8
0
  5
A4
 10
-201.299494
 20
48.408729
 30
0.0
 11
-200.628876
 21
47.738111
 31
0.0
  0
LINE
  8
0
  5
A5
 10
-201.299494
 20
48.408729
 30
0.0
 11
-201.299494
 21
57.254037
 31
0.0
  0
LINE
  8
0
  5
A6
 10
-199.2726
 20
56.124133
 30
0.0
 11
-199.2726
 21
49.355283
 31
0.0
  0
LINE
  8
0
  5
A7
 10
-206.536711
 20
54.102812
 30
0.0
 11
-206.92504
 21
54.102812
 31
0.0
  0
LINE
  8
0
  5
A8
 10
-206.536711
 20
51.376046
 30
0.0
 11
-206.536711
 21
54.102812
 31
0.0
  0
LINE
  8
0
  5
A9
 10
-206.92504
 20
51.376046
 30
0.0
 11
-206.536711
 21
51.376046
 31
0.0
  0
LINE
  8
0
  5
AA
 10
-187.193085
 20
51.239429
 30
0.0
 11
-185.380457
 21
51.239429
 31
0.0
  0
LINE
  8
0
  5
AB
 10
-187.193085
 20
54.239429
 30
0.0
 11
-187.193085
 21
51.239429
 31
0.0
  0
LINE
  8
0
  5
AC
 10
-185.297105
 20
54.239429
 30
0.0
 11
-185.299732
 21
54.239429
 31
0.0
  0
LINE
  8
0
  5
AD
 10
-188.12088
 20
62.238455
 30
0.0
 11
-213.309028
 21
61.822097
 31
0.0
  0
LINE
  8
0
  5
AE
 10
-188.12088
 20
63.912683
 30
0.0
 11
-213.309039
 21
64.349152
 31
0.0
  0
ARC
  8
0
  5
AF
 10
-212.194449
 20
64.752288
 30
0.0
 40
4.254545
 50
10.752119
 51
47.924852
  0
ARC
  8
0
  5
B0
 10
-216.727865
 20
80.525959
 30
0.0
 40
13.013948
 50
-77.564776
 51
-67.832221
  0
ARC
  8
0
  5
B1
 10
-211.024608
 20
66.24269
 30
0.0
 40
2.367946
 50
44.768246
 51
109.561555
  0
ARC
  8
0
  5
B2
 10
-223.230898
 20
62.9475
 30
0.0
 40
8.979918
 50
41.801157
 51
70.843139
  0
ARC
  8
0
  5
B3
 10
-222.22189
 20
65.503942
 30
0.0
 40
6.234978
 50
71.892836
 51
117.022505
  0
ARC
  8
0
  5
B4
 10
-214.09073
 20
71.044067
 30
0.0
 40
3.230978
 50
-139.203832
 51
-87.068615
  0
ARC
  8
0
  5
B5
 10
-218.899043
 20
63.071292
 30
0.0
 40
11.155913
 50
-12.665739
 51
-5.959089
  0
ARC
  8
0
  5
B6
 10
-212.194449
 20
61.418945
 30
0.0
 40
4.254545
 50
-47.924852
 51
-10.752119
  0
LINE
  8
0
  5
B7
 10
-215.380146
 20
63.085862
 30
0.0
 11
-215.183296
 21
63.085862
 31
0.0
  0
LINE
  8
0
  5
B8
 10
-215.281721
 20
62.987437
 30
0.0
 11
-215.281721
 21
63.184287
 31
0.0
  0
ARC
  8
0
  5
B9
 10
-216.727865
 20
45.645273
 30
0.0
 40
13.013948
 50
67.832221
 51
77.564776
  0
ARC
  8
0
  5
BA
 10
-211.024608
 20
59.928543
 30
0.0
 40
2.367946
 50
-109.561555
 51
-44.768246
  0
LINE
  8
0
  5
BB
 10
-223.515423
 20
58.833656
 30
0.0
 11
-222.142204
 21
58.833656
 31
0.0
  0
ARC
  8
0
  5
BC
 10
-222.22189
 20
60.66729
 30
0.0
 40
6.234978
 50
-117.022505
 51
-71.892836
  0
ARC
  8
0
  5
BD
 10
-223.230898
 20
63.223732
 30
0.0
 40
8.979918
 50
-70.843139
 51
-41.801157
  0
ARC
  8
0
  5
BE
 10
-214.09073
 20
55.127165
 30
0.0
 40
3.230978
 50
87.068615
 51
139.203832
  0
ARC
  8
0
  5
BF
 10
-218.899043
 20
63.09994
 30
0.0
 40
11.155913
 50
5.936435
 51
12.665739
  0
ARC
  8
0
  5
C0
 10
-215.281721
 20
63.085862
 30
0.0
 40
2.342515
 50
-179.993981
 51
32.635177
  0
LINE
  8
0
  5
C1
 10
-222.142204
 20
63.086011
 30
0.0
 11
-222.142204
 21
58.833656
 31
0.0
  0
LINE
  8
0
  5
C2
 10
-223.515423
 20
58.833656
 30
0.0
 11
-223.515423
 21
63.085948
 31
0.0
  0
ARC
  8
0
  5
C3
 10
-209.574253
 20
59.071248
 30
0.0
 40
20.779274
 50
155.809661
 51
162.097574
  0
ARC
  8
0
  5
C4
 10
-218.863595
 20
63.327348
 30
0.0
 40
10.805002
 50
-178.71806
 51
-165.995194
  0
ARC
  8
0
  5
C5
 10
-209.574253
 20
67.099984
 30
0.0
 40
20.779274
 50
-162.097574
 51
-155.809661
  0
ARC
  8
0
  5
C6
 10
-218.863595
 20
62.843885
 30
0.0
 40
10.805002
 50
165.995194
 51
178.71806
  0
LINE
  8
0
  6
PHANTOM2
  5
C7
 10
-230.737187
 20
63.085616
 30
0.0
 11
-181.610747
 21
63.087872
 31
0.0
  0
ARC
  8
0
  5
C8
 10
-221.418648
 20
63.946001
 30
0.0
 40
7.987784
 50
117.077844
 51
152.890656
  0
ARC
  8
0
  5
C9
 10
-221.418648
 20
62.225231
 30
0.0
 40
7.987784
 50
-152.890656
 51
-117.077844
  0
LINE
  8
0
  5
CA
 10
-193.350138
 20
49.53299
 30
0.0
 11
-190.251822
 21
51.110749
 31
0.0
  0
LINE
  8
0
  5
CB
 10
-193.207793
 20
49.363322
 30
0.0
 11
-190.251822
 21
50.868594
 31
0.0
  0
LINE
  8
0
  5
CC
 10
-192.303169
 20
57.217904
 30
0.0
 11
-202.460974
 21
45.112303
 31
0.0
  0
LINE
  8
0
  5
CD
 10
-202.445802
 20
60.374571
 30
0.0
 11
-192.285135
 21
48.26356
 31
0.0
  0
LINE
  8
0
  5
CE
 10
-192.607673
 20
57.298235
 30
0.0
 11
-202.714813
 21
45.253014
 31
0.0
  0
LINE
  8
0
  6
DASHED2
  5
CF
 10
-200.972657
 20
48.487469
 30
0.0
 11
-199.599438
 21
48.487469
 31
0.0
  0
LINE
  8
0
  6
DASHED2
  5
D0
 10
-200.972657
 20
56.991389
 30
0.0
 11
-199.599438
 21
56.991389
 31
0.0
  0
LINE
  8
0
  6
DASHED2
  5
D1
 10
-200.972657
 20
48.487469
 30
0.0
 11
-200.972657
 21
56.991389
 31
0.0
  0
LINE
  8
0
  6
DASHED2
  5
D2
 10
-199.599438
 20
56.991389
 30
0.0
 11
-199.599438
 21
48.487469
 31
0.0
  0
LINE
  8
0
  5
D3
 10
-213.073393
 20
51.417176
 30
0.0
 11
-213.073393
 21
51.614026
 31
0.0
  0
LINE
  8
0
  5
D4
 10
-213.171818
 20
51.515601
 30
0.0
 11
-212.974968
 21
51.515601
 31
0.0
  0
LINE
  8
0
  5
D5
 10
-214.8768
 20
51.51857
 30
0.0
 11
-214.8768
 21
51.71542
 31
0.0
  0
LINE
  8
0
  5
D6
 10
-214.975225
 20
51.616995
 30
0.0
 11
-214.778375
 21
51.616995
 31
0.0
  0
LINE
  8
0
  5
D7
 10
-213.343904
 20
53.783053
 30
0.0
 11
-213.343904
 21
53.979903
 31
0.0
  0
LINE
  8
0
  5
D8
 10
-213.442329
 20
53.881478
 30
0.0
 11
-213.245479
 21
53.881478
 31
0.0
  0
LINE
  8
0
  5
D9
 10
-214.606289
 20
53.884448
 30
0.0
 11
-214.606289
 21
54.081298
 31
0.0
  0
LINE
  8
0
  5
DA
 10
-214.704714
 20
53.982873
 30
0.0
 11
-214.507864
 21
53.982873
 31
0.0
  0
CIRCLE
  8
0
  5
DB
 10
-213.073393
 20
51.515601
 30
0.0
 40
0.235342
  0
CIRCLE
  8
0
  5
DC
 10
-214.8768
 20
51.616995
 30
0.0
 40
0.235342
  0
CIRCLE
  8
0
  5
DD
 10
-213.343904
 20
53.881478
 30
0.0
 40
0.235342
  0
CIRCLE
  8
0
  5
DE
 10
-214.606289
 20
53.982873
 30
0.0
 40
0.235342
  0
LINE
  8
0
  5
DF
 10
-198.294851
 20
55.426843
 30
0.0
 11
-194.889194
 21
57.852253
 31
0.0
  0
LINE
  8
0
  5
E0
 10
-198.509418
 20
55.682597
 30
0.0
 11
-195.062731
 21
58.137227
 31
0.0
  0
LINE
  8
0
  5
E1
 10
-193.222066
 20
56.122804
 30
0.0
 11
-190.251822
 21
54.610263
 31
0.0
  0
LINE
  8
0
  5
E2
 10
-193.364428
 20
55.953144
 30
0.0
 11
-190.251822
 21
54.368108
 31
0.0
  0
LINE
  8
0
  5
E3
 10
-202.714115
 20
60.226248
 30
0.0
 11
-192.607789
 21
48.180008
 31
0.0
  0
LINE
  8
0
  5
E4
 10
-189.857914
 20
57.556918
 30
0.0
 11
-189.857914
 21
47.921939
 31
0.0
  0
LINE
  8
0
  5
E5
 10
-190.251822
 20
57.428682
 30
0.0
 11
-190.251822
 21
48.050176
 31
0.0
  0
LINE
  8
0
  5
E6
 10
-192.738955
 20
52.64125
 30
0.0
 11
-192.738955
 21
52.8381
 31
0.0
  0
LINE
  8
0
  5
E7
 10
-192.83738
 20
52.739675
 30
0.0
 11
-192.64053
 21
52.739675
 31
0.0
  0
CIRCLE
  8
0
  5
E8
 10
-192.738955
 20
52.739675
 30
0.0
 40
2.342515
  0
ARC
  8
0
  5
E9
 10
-213.319133
 20
57.188062
 30
0.0
 40
1.832596
 50
-108.596169
 51
-71.025395
  0
ARC
  8
0
  5
EA
 10
-213.672254
 20
56.600309
 30
0.0
 40
1.172206
 50
-145.248658
 51
-101.379617
  0
ARC
  8
0
  5
EB
 10
-214.930132
 20
55.731974
 30
0.0
 40
0.356291
 50
34.179271
 51
125.422012
  0
ARC
  8
0
  5
EC
 10
-214.844565
 20
55.437695
 30
0.0
 40
0.65352
 50
116.54625
 51
182.335442
  0
ARC
  8
0
  5
ED
 10
-17.085132
 20
63.019228
 30
0.0
 40
198.558228
 50
-177.804058
 51
-177.487165
  0
ARC
  8
0
  5
EE
 10
-221.99276
 20
54.041049
 30
0.0
 40
6.546016
 50
-23.234796
 51
2.388153
  0
ARC
  8
0
  5
EF
 10
-203.474262
 20
54.843387
 30
0.0
 40
9.269208
 50
176.216408
 51
201.417419
  0
ARC
  8
0
  5
F0
 10
-214.872994
 20
49.851787
 30
0.0
 40
1.251919
 50
-2.314709
 51
24.02795
  0
ARC
  8
0
  5
F1
 10
-214.087653
 20
50.138145
 30
0.0
 40
0.422066
 50
31.958312
 51
83.587985
  0
ARC
  8
0
  5
F2
 10
-213.993383
 20
50.138145
 30
0.0
 40
0.422066
 50
96.412013
 51
148.041686
  0
ARC
  8
0
  5
F3
 10
-213.208042
 20
49.851787
 30
0.0
 40
1.251919
 50
155.972055
 51
182.314705
  0
ARC
  8
0
  5
F4
 10
-210.121728
 20
48.926763
 30
0.0
 40
3.215181
 50
128.049586
 51
164.217938
  0
LINE
  8
0
  6
PHANTOM2
  5
F5
 10
-214.040518
 20
56.570319
 30
0.0
 11
-214.040518
 21
48.995748
 31
0.0
  0
ARC
  8
0
  5
F6
 10
-217.959308
 20
48.926763
 30
0.0
 40
3.215181
 50
15.782057
 51
51.950409
  0
LINE
  8
0
  5
F7
 10
-214.865329
 20
49.801224
 30
0.0
 11
-213.215707
 21
49.801224
 31
0.0
  0
ARC
  8
0
  5
F8
 10
-196.356277
 20
52.725105
 30
0.0
 40
11.155913
 50
-12.665739
 51
0.073566
  0
ARC
  8
0
  5
F9
 10
-189.651683
 20
51.072757
 30
0.0
 40
4.254545
 50
-47.924852
 51
-10.752119
  0
ARC
  8
0
  5
FA
 10
-194.185099
 20
35.299086
 30
0.0
 40
13.013948
 50
67.832221
 51
77.564776
  0
ARC
  8
0
  5
FB
 10
-188.481842
 20
49.582355
 30
0.0
 40
2.367946
 50
-109.561555
 51
-44.768246
  0
ARC
  8
0
  5
FC
 10
-200.688132
 20
52.877545
 30
0.0
 40
8.979918
 50
-70.843139
 51
-41.801157
  0
ARC
  8
0
  5
FD
 10
-199.679124
 20
50.321103
 30
0.0
 40
6.234978
 50
-117.022505
 51
-71.892836
  0
ARC
  8
0
  5
FE
 10
-191.547964
 20
44.780978
 30
0.0
 40
3.230978
 50
87.068615
 51
139.203832
  0
ARC
  8
0
  5
FF
 10
-198.875882
 20
51.879044
 30
0.0
 40
7.987784
 50
-152.890656
 51
-117.077844
  0
ARC
  8
0
  5
100
 10
-187.031487
 20
56.753797
 30
0.0
 40
20.779274
 50
-162.097574
 51
-155.809661
  0
ARC
  8
0
  5
101
 10
-196.320829
 20
52.98116
 30
0.0
 40
10.805002
 50
-178.71806
 51
-165.995194
  0
ARC
  8
0
  5
102
 10
-187.031487
 20
48.725061
 30
0.0
 40
20.779274
 50
155.809661
 51
162.097574
  0
ARC
  8
0
  5
103
 10
-196.320829
 20
52.497697
 30
0.0
 40
10.805002
 50
165.995194
 51
178.71806
  0
ARC
  8
0
  5
104
 10
-196.356277
 20
52.753753
 30
0.0
 40
11.155913
 50
-0.073566
 51
12.665739
  0
ARC
  8
0
  5
105
 10
-189.651683
 20
54.4061
 30
0.0
 40
4.254545
 50
10.752119
 51
47.924852
  0
ARC
  8
0
  5
106
 10
-188.481842
 20
55.896502
 30
0.0
 40
2.367946
 50
44.768246
 51
109.561555
  0
ARC
  8
0
  5
107
 10
-194.185099
 20
70.179771
 30
0.0
 40
13.013948
 50
-77.564776
 51
-67.832221
  0
ARC
  8
0
  5
108
 10
-191.547964
 20
60.69788
 30
0.0
 40
3.230978
 50
-139.203832
 51
-87.068615
  0
ARC
  8
0
  5
109
 10
-200.688132
 20
52.601312
 30
0.0
 40
8.979918
 50
41.801157
 51
70.843139
  0
ARC
  8
0
  5
10A
 10
-199.679124
 20
55.157755
 30
0.0
 40
6.234978
 50
71.892836
 51
117.022505
  0
ARC
  8
0
  5
10B
 10
-198.875882
 20
53.599814
 30
0.0
 40
7.987784
 50
117.077844
 51
152.890656
  0
LINE
  8
0
  6
PHANTOM2
  5
10C
 10
-207.299012
 20
52.739429
 30
0.0
 11
-182.58041
 21
52.739429
 31
0.0
  0
LINE
  8
0
  5
10D
 10
-203.98007
 20
69.008505
 30
0.0
 11
-202.041111
 21
69.008505
 31
0.0
  0
ARC
  8
0
  5
10E
 10
-188.787574
 20
68.725165
 30
0.0
 40
8.750995
 50
164.105035
 51
178.144543
  0
ARC
  8
0
  5
10F
 10
-193.412615
 20
69.78751
 30
0.0
 40
4.019313
 50
137.595773
 51
160.61101
  0
ARC
  8
0
  5
110
 10
-194.870247
 20
71.226482
 30
0.0
 40
1.974213
 50
98.385303
 51
139.906016
  0
LINE
  8
0
  5
111
 10
-195.158145
 20
73.179591
 30
0.0
 11
-193.672454
 21
73.193409
 31
0.0
  0
LINE
  8
0
  5
112
 10
-203.98007
 20
74.09066
 30
0.0
 11
-202.041111
 21
74.09066
 31
0.0
  0
LINE
  8
0
  5
113
 10
-199.967884
 20
74.340659
 30
0.0
 11
-194.128422
 21
74.340659
 31
0.0
  0
LINE
  8
0
  5
114
 10
-198.713768
 20
74.09066
 30
0.0
 11
-198.713768
 21
69.008505
 31
0.0
  0
LINE
  8
0
  5
115
 10
-194.258102
 20
74.666944
 30
0.0
 11
-193.446417
 21
72.624681
 31
0.0
  0
LINE
  8
0
  5
116
 10
-194.258102
 20
73.771706
 30
0.0
 11
-193.362449
 21
73.827658
 31
0.0
  0
LINE
  8
0
  5
117
 10
-194.062178
 20
73.491944
 30
0.0
 11
-193.446417
 21
73.547896
 31
0.0
  0
LINE
  8
0
  5
118
 10
-199.967884
 20
74.340659
 30
0.0
 11
-199.967884
 21
74.09066
 31
0.0
  0
LINE
  8
0
  5
119
 10
-199.687993
 20
74.09066
 30
0.0
 11
-199.687993
 21
69.603252
 31
0.0
  0
LINE
  8
0
  5
11A
 10
-198.713768
 20
69.603252
 30
0.0
 11
-199.687993
 21
69.603252
 31
0.0
  0
LINE
  8
0
  5
11B
 10
-203.98007
 20
74.09066
 30
0.0
 11
-203.98007
 21
69.008505
 31
0.0
  0
LINE
  8
0
  6
DASHED2
  5
11C
 10
-202.989963
 20
74.09066
 30
0.0
 11
-202.989963
 21
69.603252
 31
0.0
  0
LINE
  8
0
  5
11D
 10
-202.041111
 20
74.09066
 30
0.0
 11
-202.041111
 21
69.008505
 31
0.0
  0
LINE
  8
0
  5
11E
 10
-199.967884
 20
74.09066
 30
0.0
 11
-194.029061
 21
74.09066
 31
0.0
  0
LINE
  8
0
  6
DASHED2
  5
11F
 10
-202.041111
 20
69.603252
 30
0.0
 11
-202.989963
 21
69.603252
 31
0.0
  0
LINE
  8
0
  5
120
 10
-198.713768
 20
69.008505
 30
0.0
 11
-197.533981
 21
69.008505
 31
0.0
  0
LINE
  8
0
  6
DASHED2
  5
121
 10
-198.713768
 20
73.009288
 30
0.0
 11
-199.687993
 21
73.009288
 31
0.0
  0
LINE
  8
0
  6
DASHED2
  5
122
 10
-198.713768
 20
72.651899
 30
0.0
 11
-199.687993
 21
72.651899
 31
0.0
  0
LINE
  8
0
  6
DASHED2
  5
123
 10
-198.713768
 20
71.526035
 30
0.0
 11
-199.687993
 21
71.526035
 31
0.0
  0
LINE
  8
0
  6
DASHED2
  5
124
 10
-198.713768
 20
71.182392
 30
0.0
 11
-199.687993
 21
71.182392
 31
0.0
  0
LINE
  8
0
  6
DASHED2
  5
125
 10
-203.98007
 20
73.22922
 30
0.0
 11
-203.70504
 21
73.22922
 31
0.0
  0
LINE
  8
0
  6
DASHED2
  5
126
 10
-203.98007
 20
72.390729
 30
0.0
 11
-203.70504
 21
72.390729
 31
0.0
  0
LINE
  8
0
  6
DASHED2
  5
127
 10
-203.98007
 20
70.948714
 30
0.0
 11
-203.70504
 21
70.948714
 31
0.0
  0
LINE
  8
0
  6
DASHED2
  5
128
 10
-203.98007
 20
71.842188
 30
0.0
 11
-203.70504
 21
71.842188
 31
0.0
  0
LINE
  8
0
  6
DASHED2
  5
129
 10
-203.70504
 20
73.22922
 30
0.0
 11
-203.70504
 21
72.390729
 31
0.0
  0
LINE
  8
0
  6
DASHED2
  5
12A
 10
-203.70504
 20
71.842188
 30
0.0
 11
-203.70504
 21
70.948714
 31
0.0
  0
LINE
  8
0
  6
DASHED2
  5
12B
 10
-203.70504
 20
72.968051
 30
0.0
 11
-202.989963
 21
72.968051
 31
0.0
  0
LINE
  8
0
  6
DASHED2
  5
12C
 10
-203.70504
 20
72.624407
 30
0.0
 11
-202.989963
 21
72.624407
 31
0.0
  0
LINE
  8
0
  6
DASHED2
  5
12D
 10
-203.70504
 20
71.526035
 30
0.0
 11
-202.989963
 21
71.526035
 31
0.0
  0
LINE
  8
0
  6
DASHED2
  5
12E
 10
-203.70504
 20
71.1549
 30
0.0
 11
-202.989963
 21
71.1549
 31
0.0
  0
LINE
  8
0
  5
12F
 10
-184.47335
 20
52.264036
 30
0.0
 11
-184.47335
 21
53.264034
 31
0.0
  0
LINE
  8
0
  5
130
 10
-184.47335
 20
53.264034
 30
0.0
 11
-183.485019
 21
53.264034
 31
0.0
  0
LINE
  8
0
  5
131
 10
-183.482874
 20
52.264036
 30
0.0
 11
-184.47335
 21
52.264036
 31
0.0
  0
LINE
  8
0
  5
132
 10
-183.485019
 20
53.264034
 30
0.0
 11
-183.485019
 21
53.907429
 31
0.0
  0
LINE
  8
0
  5
133
 10
-183.482874
 20
52.264036
 30
0.0
 11
-183.482874
 21
51.571429
 31
0.0
  0
LINE
  8
0
  5
134
 10
-183.485019
 20
53.907429
 30
0.0
 11
-181.562591
 21
53.907429
 31
0.0
  0
LINE
  8
0
  5
135
 10
-183.482874
 20
51.571429
 30
0.0
 11
-182.038778
 21
51.571429
 31
0.0
  0
LINE
  8
0
  5
136
 10
-181.488149
 20
54.272613
 30
0.0
 11
-182.113149
 21
51.206596
 31
0.0
  0
LINE
  8
0
  5
137
 10
-181.907556
 20
53.05607
 30
0.0
 11
-181.545714
 21
53.03963
 31
0.0
  0
LINE
  8
0
  5
138
 10
-181.907556
 20
52.702615
 30
0.0
 11
-181.627951
 21
52.694395
 31
0.0
  0
LINE
  8
0
  5
139
 10
-227.038418
 20
51.235861
 30
0.0
 11
-227.038418
 21
49.874459
 31
0.0
  0
LINE
  8
0
  5
13A
 10
-218.408311
 20
51.235861
 30
0.0
 11
-218.408311
 21
49.874459
 31
0.0
  0
LINE
  8
0
  5
13B
 10
-224.690089
 20
51.235861
 30
0.0
 11
-224.690089
 21
49.874459
 31
0.0
  0
LINE
  8
0
  5
13C
 10
-220.768381
 20
51.235861
 30
0.0
 11
-220.768381
 21
49.874459
 31
0.0
  0
LINE
  8
0
  5
13D
 10
-227.038418
 20
50.543424
 30
0.0
 11
-218.408311
 21
50.543424
 31
0.0
  0
LINE
  8
0
  5
13E
 10
-227.038418
 20
51.235861
 30
0.0
 11
-218.408311
 21
51.235861
 31
0.0
  0
LINE
  8
0
  5
13F
 10
-227.038418
 20
49.874459
 30
0.0
 11
-218.408311
 21
49.874459
 31
0.0
  0
LINE
  8
0
  5
140
 10
-224.690089
 20
51.106762
 30
0.0
 11
-220.768381
 21
51.106762
 31
0.0
  0
LINE
  8
0
  5
141
 10
-224.690089
 20
51.001136
 30
0.0
 11
-220.768381
 21
51.001136
 31
0.0
  0
LINE
  8
0
  6
HIDDEN2
  5
142
 10
-224.044299
 20
50.073975
 30
0.0
 11
-223.774241
 21
50.073975
 31
0.0
  0
LINE
  8
0
  6
HIDDEN2
  5
143
 10
-224.044299
 20
49.874459
 30
0.0
 11
-224.044299
 21
50.073975
 31
0.0
  0
LINE
  8
0
  6
HIDDEN2
  5
144
 10
-223.774241
 20
49.874459
 30
0.0
 11
-223.774241
 21
50.073975
 31
0.0
  0
LINE
  8
0
  6
HIDDEN2
  5
145
 10
-223.257609
 20
49.874459
 30
0.0
 11
-223.257609
 21
50.073975
 31
0.0
  0
LINE
  8
0
  6
HIDDEN2
  5
146
 10
-223.011034
 20
49.874459
 30
0.0
 11
-223.011034
 21
50.073975
 31
0.0
  0
LINE
  8
0
  6
HIDDEN2
  5
147
 10
-222.459177
 20
49.874459
 30
0.0
 11
-222.459177
 21
50.073975
 31
0.0
  0
LINE
  8
0
  6
HIDDEN2
  5
148
 10
-222.200861
 20
49.874459
 30
0.0
 11
-222.200861
 21
50.073975
 31
0.0
  0
LINE
  8
0
  6
HIDDEN2
  5
149
 10
-221.684229
 20
49.874459
 30
0.0
 11
-221.684229
 21
50.073975
 31
0.0
  0
LINE
  8
0
  6
HIDDEN2
  5
14A
 10
-221.414171
 20
49.874459
 30
0.0
 11
-221.414171
 21
50.073975
 31
0.0
  0
LINE
  8
0
  6
HIDDEN2
  5
14B
 10
-223.257609
 20
50.073975
 30
0.0
 11
-223.011034
 21
50.073975
 31
0.0
  0
LINE
  8
0
  6
HIDDEN2
  5
14C
 10
-222.459177
 20
50.073975
 30
0.0
 11
-222.200861
 21
50.073975
 31
0.0
  0
LINE
  8
0
  6
HIDDEN2
  5
14D
 10
-221.684229
 20
50.073975
 30
0.0
 11
-221.414171
 21
50.073975
 31
0.0
  0
LINE
  8
0
  6
HIDDEN2
  5
14E
 10
-223.966682
 20
50.073975
 30
0.0
 11
-223.966682
 21
50.543424
 31
0.0
  0
LINE
  8
0
  6
HIDDEN2
  5
14F
 10
-223.853752
 20
50.073975
 30
0.0
 11
-223.853752
 21
50.543424
 31
0.0
  0
LINE
  8
0
  6
HIDDEN2
  5
150
 10
-223.196978
 20
50.073975
 30
0.0
 11
-223.196978
 21
50.543424
 31
0.0
  0
LINE
  8
0
  6
HIDDEN2
  5
151
 10
-223.051358
 20
50.073975
 30
0.0
 11
-223.051358
 21
50.543424
 31
0.0
  0
LINE
  8
0
  6
HIDDEN2
  5
152
 10
-222.400527
 20
50.073975
 30
0.0
 11
-222.400527
 21
50.543424
 31
0.0
  0
LINE
  8
0
  6
HIDDEN2
  5
153
 10
-222.27571
 20
50.073975
 30
0.0
 11
-222.27571
 21
50.543424
 31
0.0
  0
LINE
  8
0
  6
HIDDEN2
  5
154
 10
-221.633795
 20
50.073975
 30
0.0
 11
-221.633795
 21
50.543424
 31
0.0
  0
LINE
  8
0
  6
HIDDEN2
  5
155
 10
-221.482232
 20
50.073975
 30
0.0
 11
-221.482232
 21
50.543424
 31
0.0
  0
CIRCLE
  8
0
  5
156
 10
-223.88787
 20
52.495201
 30
0.0
 40
0.20191
  0
CIRCLE
  8
0
  5
157
 10
-223.105929
 20
52.50254
 30
0.0
 40
0.20191
  0
CIRCLE
  8
0
  5
158
 10
-222.33133
 20
52.495201
 30
0.0
 40
0.20191
  0
CIRCLE
  8
0
  5
159
 10
-221.527363
 20
52.495201
 30
0.0
 40
0.20191
  0
LINE
  8
0
  5
15A
 10
-223.97787
 20
52.495201
 30
0.0
 11
-223.79787
 21
52.495201
 31
0.0
  0
LINE
  8
0
  5
15B
 10
-223.88787
 20
52.405201
 30
0.0
 11
-223.88787
 21
52.585201
 31
0.0
  0
LINE
  8
0
  5
15C
 10
-223.195929
 20
52.50254
 30
0.0
 11
-223.015929
 21
52.50254
 31
0.0
  0
LINE
  8
0
  5
15D
 10
-223.105929
 20
52.41254
 30
0.0
 11
-223.105929
 21
52.59254
 31
0.0
  0
LINE
  8
0
  5
15E
 10
-222.42133
 20
52.495201
 30
0.0
 11
-222.24133
 21
52.495201
 31
0.0
  0
LINE
  8
0
  5
15F
 10
-222.33133
 20
52.405201
 30
0.0
 11
-222.33133
 21
52.585201
 31
0.0
  0
LINE
  8
0
  5
160
 10
-221.617363
 20
52.495201
 30
0.0
 11
-221.437363
 21
52.495201
 31
0.0
  0
LINE
  8
0
  5
161
 10
-221.527363
 20
52.405201
 30
0.0
 11
-221.527363
 21
52.585201
 31
0.0
  0
LINE
  8
0
  5
162
 10
-227.038418
 20
52.206528
 30
0.0
 11
-218.431794
 21
52.206528
 31
0.0
  0
LINE
  8
0
  5
163
 10
-227.038418
 20
52.429516
 30
0.0
 11
-224.666606
 21
52.429516
 31
0.0
  0
LINE
  8
0
  5
164
 10
-227.038418
 20
52.429516
 30
0.0
 11
-227.038418
 21
52.206528
 31
0.0
  0
LINE
  8
0
  5
165
 10
-224.666606
 20
52.781603
 30
0.0
 11
-224.666606
 21
52.206528
 31
0.0
  0
LINE
  8
0
  5
166
 10
-220.756639
 20
52.781603
 30
0.0
 11
-220.756639
 21
52.206528
 31
0.0
  0
LINE
  8
0
  5
167
 10
-218.431794
 20
52.429516
 30
0.0
 11
-218.431794
 21
52.206528
 31
0.0
  0
LINE
  8
0
  5
168
 10
-224.666606
 20
52.781603
 30
0.0
 11
-220.756639
 21
52.781603
 31
0.0
  0
LINE
  8
0
  5
169
 10
-220.756639
 20
52.429516
 30
0.0
 11
-218.431794
 21
52.429516
 31
0.0
  0
LINE
  8
0
  5
16A
 10
-178.842509
 20
50.933506
 30
0.0
 11
-178.842509
 21
76.632172
 31
0.0
  0
LINE
  8
0
  6
PHANTOM2
  5
16B
 10
-179.842509
 20
76.632172
 30
0.0
 11
-179.842509
 21
50.933506
 31
0.0
  0
LINE
  8
0
  5
16C
 10
-188.342761
 20
63.916528
 30
0.0
 11
-188.342761
 21
62.234787
 31
0.0
  0
LINE
  8
0
  5
16D
 10
-179.842509
 20
74.724172
 30
0.0
 11
-178.842509
 21
74.724172
 31
0.0
  0
LINE
  8
0
  5
16E
 10
-179.842509
 20
72.923172
 30
0.0
 11
-178.842509
 21
72.923172
 31
0.0
  0
LINE
  8
0
  5
16F
 10
-179.842509
 20
71.222172
 30
0.0
 11
-178.842509
 21
71.222172
 31
0.0
  0
LINE
  8
0
  5
170
 10
-179.842509
 20
69.618172
 30
0.0
 11
-178.842509
 21
69.618172
 31
0.0
  0
LINE
  8
0
  5
171
 10
-179.842509
 20
68.103172
 30
0.0
 11
-178.842509
 21
68.103172
 31
0.0
  0
LINE
  8
0
  5
172
 10
-179.842509
 20
66.674172
 30
0.0
 11
-178.842509
 21
66.674172
 31
0.0
  0
LINE
  8
0
  5
173
 10
-179.842509
 20
65.324172
 30
0.0
 11
-178.842509
 21
65.324172
 31
0.0
  0
LINE
  8
0
  5
174
 10
-179.842509
 20
64.051172
 30
0.0
 11
-178.842509
 21
64.051172
 31
0.0
  0
LINE
  8
0
  5
175
 10
-179.842509
 20
62.848172
 30
0.0
 11
-178.842509
 21
62.848172
 31
0.0
  0
LINE
  8
0
  5
176
 10
-179.842509
 20
61.714172
 30
0.0
 11
-178.842509
 21
61.714172
 31
0.0
  0
LINE
  8
0
  5
177
 10
-179.842509
 20
60.643172
 30
0.0
 11
-178.842509
 21
60.643172
 31
0.0
  0
LINE
  8
0
  5
178
 10
-179.842509
 20
59.632172
 30
0.0
 11
-178.842509
 21
59.632172
 31
0.0
  0
LINE
  8
0
  5
179
 10
-179.842509
 20
58.678172
 30
0.0
 11
-178.842509
 21
58.678172
 31
0.0
  0
LINE
  8
0
  5
17A
 10
-179.842509
 20
57.777172
 30
0.0
 11
-178.842509
 21
57.777172
 31
0.0
  0
LINE
  8
0
  5
17B
 10
-179.842509
 20
56.927172
 30
0.0
 11
-178.842509
 21
56.927172
 31
0.0
  0
LINE
  8
0
  5
17C
 10
-179.842509
 20
56.125172
 30
0.0
 11
-178.842509
 21
56.125172
 31
0.0
  0
LINE
  8
0
  5
17D
 10
-179.842509
 20
55.367172
 30
0.0
 11
-178.842509
 21
55.367172
 31
0.0
  0
LINE
  8
0
  5
17E
 10
-179.842509
 20
54.653172
 30
0.0
 11
-178.842509
 21
54.653172
 31
0.0
  0
LINE
  8
0
  5
17F
 10
-179.842509
 20
53.978172
 30
0.0
 11
-178.842509
 21
53.978172
 31
0.0
  0
LINE
  8
0
  5
180
 10
-179.842509
 20
53.341172
 30
0.0
 11
-178.842509
 21
53.341172
 31
0.0
  0
LINE
  8
0
  5
181
 10
-179.842509
 20
52.740172
 30
0.0
 11
-178.842509
 21
52.740172
 31
0.0
  0
LINE
  8
0
  5
182
 10
-179.842509
 20
52.173172
 30
0.0
 11
-178.842509
 21
52.173172
 31
0.0
  0
LINE
  8
0
  5
183
 10
-212.801761
 20
64.340362
 30
0.0
 11
-212.801761
 21
61.830482
 31
0.0
  0
LINE
  8
0
  5
184
 10
-212.234761
 20
64.330537
 30
0.0
 11
-212.234761
 21
61.839854
 31
0.0
  0
LINE
  8
0
  5
185
 10
-211.633761
 20
64.320122
 30
0.0
 11
-211.633761
 21
61.849789
 31
0.0
  0
LINE
  8
0
  5
186
 10
-210.996761
 20
64.309084
 30
0.0
 11
-210.996761
 21
61.860318
 31
0.0
  0
LINE
  8
0
  5
187
 10
-210.321761
 20
64.297388
 30
0.0
 11
-210.321761
 21
61.871476
 31
0.0
  0
LINE
  8
0
  5
188
 10
-209.607761
 20
64.285015
 30
0.0
 11
-209.607761
 21
61.883278
 31
0.0
  0
LINE
  8
0
  5
189
 10
-208.849761
 20
64.27188
 30
0.0
 11
-208.849761
 21
61.895808
 31
0.0
  0
LINE
  8
0
  5
18A
 10
-208.047761
 20
64.257983
 30
0.0
 11
-208.047761
 21
61.909065
 31
0.0
  0
LINE
  8
0
  5
18B
 10
-207.197761
 20
64.243254
 30
0.0
 11
-207.197761
 21
61.923116
 31
0.0
  0
LINE
  8
0
  5
18C
 10
-206.296761
 20
64.227641
 30
0.0
 11
-206.296761
 21
61.938009
 31
0.0
  0
LINE
  8
0
  5
18D
 10
-205.342761
 20
64.21111
 30
0.0
 11
-205.342761
 21
61.953779
 31
0.0
  0
LINE
  8
0
  5
18E
 10
-204.331761
 20
64.193591
 30
0.0
 11
-204.331761
 21
61.97049
 31
0.0
  0
LINE
  8
0
  5
18F
 10
-203.260761
 20
64.175032
 30
0.0
 11
-203.260761
 21
61.988194
 31
0.0
  0
LINE
  8
0
  5
190
 10
-202.126761
 20
64.155382
 30
0.0
 11
-202.126761
 21
62.006939
 31
0.0
  0
LINE
  8
0
  5
191
 10
-200.923761
 20
64.134536
 30
0.0
 11
-200.923761
 21
62.026824
 31
0.0
  0
LINE
  8
0
  5
192
 10
-198.300761
 20
64.089084
 30
0.0
 11
-198.300761
 21
62.070182
 31
0.0
  0
LINE
  8
0
  5
193
 10
-199.650761
 20
64.112477
 30
0.0
 11
-199.650761
 21
62.047867
 31
0.0
  0
LINE
  8
0
  5
194
 10
-196.871761
 20
64.064322
 30
0.0
 11
-196.871761
 21
62.093804
 31
0.0
  0
LINE
  8
0
  5
195
 10
-195.356761
 20
64.038069
 30
0.0
 11
-195.356761
 21
62.118846
 31
0.0
  0
LINE
  8
0
  5
196
 10
-193.752761
 20
64.010274
 30
0.0
 11
-193.752761
 21
62.14536
 31
0.0
  0
LINE
  8
0
  5
197
 10
-192.051761
 20
63.980799
 30
0.0
 11
-192.051761
 21
62.173478
 31
0.0
  0
LINE
  8
0
  5
198
 10
-190.250761
 20
63.949591
 30
0.0
 11
-190.250761
 21
62.203248
 31
0.0
  0
LINE
  8
0
  5
199
 10
-179.842509
 20
50.933506
 30
0.0
 11
-178.842509
 21
50.933506
 31
0.0
  0
LINE
  8
0
  5
19A
 10
-179.842509
 20
53.341172
 30
0.0
 11
-180.842509
 21
53.341172
 31
0.0
  0
LINE
  8
0
  5
19B
 10
-179.842509
 20
52.740172
 30
0.0
 11
-180.842509
 21
52.740172
 31
0.0
  0
LINE
  8
0
  5
19C
 10
-179.842509
 20
52.173172
 30
0.0
 11
-180.842509
 21
52.173172
 31
0.0
  0
LINE
  8
0
  5
19D
 10
-179.842509
 20
56.125172
 30
0.0
 11
-180.842509
 21
56.125172
 31
0.0
  0
LINE
  8
0
  5
19E
 10
-179.842509
 20
55.367172
 30
0.0
 11
-180.842509
 21
55.367172
 31
0.0
  0
LINE
  8
0
  5
19F
 10
-179.842509
 20
54.653172
 30
0.0
 11
-180.842509
 21
54.653172
 31
0.0
  0
LINE
  8
0
  5
1A0
 10
-179.842509
 20
53.978172
 30
0.0
 11
-180.842509
 21
53.978172
 31
0.0
  0
LINE
  8
0
  5
1A1
 10
-179.842509
 20
58.678172
 30
0.0
 11
-180.842509
 21
58.678172
 31
0.0
  0
LINE
  8
0
  5
1A2
 10
-179.842509
 20
57.777172
 30
0.0
 11
-180.842509
 21
57.777172
 31
0.0
  0
LINE
  8
0
  5
1A3
 10
-179.842509
 20
56.927172
 30
0.0
 11
-180.842509
 21
56.927172
 31
0.0
  0
LINE
  8
0
  5
1A4
 10
-179.842509
 20
60.643172
 30
0.0
 11
-180.842509
 21
60.643172
 31
0.0
  0
LINE
  8
0
  5
1A5
 10
-179.842509
 20
59.632172
 30
0.0
 11
-180.842509
 21
59.632172
 31
0.0
  0
LINE
  8
0
  5
1A6
 10
-179.842509
 20
62.848172
 30
0.0
 11
-180.842509
 21
62.848172
 31
0.0
  0
LINE
  8
0
  5
1A7
 10
-179.842509
 20
61.714172
 30
0.0
 11
-180.842509
 21
61.714172
 31
0.0
  0
LINE
  8
0
  5
1A8
 10
-179.842509
 20
65.324172
 30
0.0
 11
-180.842509
 21
65.324172
 31
0.0
  0
LINE
  8
0
  5
1A9
 10
-179.842509
 20
64.051172
 30
0.0
 11
-180.842509
 21
64.051172
 31
0.0
  0
LINE
  8
0
  5
1AA
 10
-179.842509
 20
68.103172
 30
0.0
 11
-180.842509
 21
68.103172
 31
0.0
  0
LINE
  8
0
  5
1AB
 10
-179.842509
 20
66.674172
 30
0.0
 11
-180.842509
 21
66.674172
 31
0.0
  0
LINE
  8
0
  5
1AC
 10
-179.842509
 20
69.618172
 30
0.0
 11
-180.842509
 21
69.618172
 31
0.0
  0
LINE
  8
0
  5
1AD
 10
-179.842509
 20
72.923172
 30
0.0
 11
-180.842509
 21
72.923172
 31
0.0
  0
LINE
  8
0
  5
1AE
 10
-179.842509
 20
71.222172
 30
0.0
 11
-180.842509
 21
71.222172
 31
0.0
  0
LINE
  8
0
  5
1AF
 10
-179.842509
 20
74.724172
 30
0.0
 11
-180.842509
 21
74.724172
 31
0.0
  0
LINE
  8
0
  5
1B0
 10
-179.842509
 20
76.632172
 30
0.0
 11
-180.842509
 21
76.632172
 31
0.0
  0
LINE
  8
0
  5
1B1
 10
-180.842509
 20
50.933506
 30
0.0
 11
-180.842509
 21
76.632172
 31
0.0
  0
LINE
  8
0
  5
1B2
 10
-179.842509
 20
50.933506
 30
0.0
 11
-180.842509
 21
50.933506
 31
0.0
  0
CIRCLE
  8
0
  5
1B3
 10
-192.902261
 20
63.087354
 30
0.0
 40
0.125
  0
CIRCLE
  8
0
  5
1B4
 10
-196.114261
 20
63.087206
 30
0.0
 40
0.125
  0
CIRCLE
  8
0
  5
1B5
 10
-198.975761
 20
63.087075
 30
0.0
 40
0.125
  0
CIRCLE
  8
0
  5
1B6
 10
-201.525261
 20
63.086958
 30
0.0
 40
0.125
  0
CIRCLE
  8
0
  5
1B7
 10
-204.836261
 20
63.601362
 30
0.0
 40
0.125
  0
CIRCLE
  8
0
  5
1B8
 10
-204.836261
 20
62.572206
 30
0.0
 40
0.125
  0
CIRCLE
  8
0
  5
1B9
 10
-206.747261
 20
63.086718
 30
0.0
 40
0.125
  0
CIRCLE
  8
0
  5
1BA
 10
-208.448761
 20
63.08664
 30
0.0
 40
0.125
  0
CIRCLE
  8
0
  5
1BB
 10
-209.964761
 20
63.08657
 30
0.0
 40
0.125
  0
CIRCLE
  8
0
  5
1BC
 10
-211.315261
 20
63.086508
 30
0.0
 40
0.125
  0
CIRCLE
  8
0
  5
1BD
 10
-212.518261
 20
63.086453
 30
0.0
 40
0.125
  0
LINE
  8
0
  5
1BE
 10
-180.357109
 20
60.048672
 30
0.0
 11
-180.357109
 21
60.228672
 31
0.0
  0
LINE
  8
0
  5
1BF
 10
-180.267109
 20
60.138672
 30
0.0
 11
-180.447109
 21
60.138672
 31
0.0
  0
LINE
  8
0
  5
1C0
 10
-179.327909
 20
60.048672
 30
0.0
 11
-179.327909
 21
60.228672
 31
0.0
  0
LINE
  8
0
  5
1C1
 10
-179.237909
 20
60.138672
 30
0.0
 11
-179.417909
 21
60.138672
 31
0.0
  0
LINE
  8
0
  5
1C2
 10
-179.842509
 20
71.982672
 30
0.0
 11
-179.842509
 21
72.162672
 31
0.0
  0
LINE
  8
0
  5
1C3
 10
-179.752509
 20
72.072672
 30
0.0
 11
-179.932509
 21
72.072672
 31
0.0
  0
LINE
  8
0
  5
1C4
 10
-179.842509
 20
68.770672
 30
0.0
 11
-179.842509
 21
68.950672
 31
0.0
  0
LINE
  8
0
  5
1C5
 10
-179.752509
 20
68.860672
 30
0.0
 11
-179.932509
 21
68.860672
 31
0.0
  0
LINE
  8
0
  5
1C6
 10
-179.842509
 20
65.909172
 30
0.0
 11
-179.842509
 21
66.089172
 31
0.0
  0
LINE
  8
0
  5
1C7
 10
-179.752509
 20
65.999172
 30
0.0
 11
-179.932509
 21
65.999172
 31
0.0
  0
LINE
  8
0
  5
1C8
 10
-179.842509
 20
63.359672
 30
0.0
 11
-179.842509
 21
63.539672
 31
0.0
  0
LINE
  8
0
  5
1C9
 10
-179.752509
 20
63.449672
 30
0.0
 11
-179.932509
 21
63.449672
 31
0.0
  0
LINE
  8
0
  5
1CA
 10
-179.842509
 20
56.436172
 30
0.0
 11
-179.842509
 21
56.616172
 31
0.0
  0
LINE
  8
0
  5
1CB
 10
-179.752509
 20
56.526172
 30
0.0
 11
-179.932509
 21
56.526172
 31
0.0
  0
LINE
  8
0
  5
1CC
 10
-179.842509
 20
58.137672
 30
0.0
 11
-179.842509
 21
58.317672
 31
0.0
  0
LINE
  8
0
  5
1CD
 10
-179.752509
 20
58.227672
 30
0.0
 11
-179.932509
 21
58.227672
 31
0.0
  0
LINE
  8
0
  5
1CE
 10
-179.842509
 20
52.366672
 30
0.0
 11
-179.842509
 21
52.546672
 31
0.0
  0
LINE
  8
0
  5
1CF
 10
-179.752509
 20
52.456672
 30
0.0
 11
-179.932509
 21
52.456672
 31
0.0
  0
LINE
  8
0
  5
1D0
 10
-179.842509
 20
53.569672
 30
0.0
 11
-179.842509
 21
53.749672
 31
0.0
  0
LINE
  8
0
  5
1D1
 10
-179.752509
 20
53.659672
 30
0.0
 11
-179.932509
 21
53.659672
 31
0.0
  0
LINE
  8
0
  5
1D2
 10
-179.842509
 20
54.920172
 30
0.0
 11
-179.842509
 21
55.100172
 31
0.0
  0
LINE
  8
0
  5
1D3
 10
-179.752509
 20
55.010172
 30
0.0
 11
-179.932509
 21
55.010172
 31
0.0
  0
LINE
  8
0
  6
PHANTOM2
  5
1D4
 10
-198.713768
 20
72.830588
 30
0.0
 11
-204.957929
 21
72.830588
 31
0.0
  0
LINE
  8
0
  6
PHANTOM2
  5
1D5
 10
-198.713768
 20
71.347335
 30
0.0
 11
-204.957929
 21
71.347335
 31
0.0
  0
LINE
  8
0
  6
CONTINUOUS
 62
     0
  5
1D6
 10
-199.794103
 20
71.036993
 30
0.0
 11
-201.779572
 21
68.316366
 31
0.0
  0
POLYLINE
  8
0
  6
CONTINUOUS
 62
     0
  5
1D7
 66
     1
 10
0.0
 20
0.0
 30
0.0
 70
     1
  0
VERTEX
  8
0
  6
CONTINUOUS
 62
     0
  5
1D8
 10
-199.687993
 20
71.182392
 30
0.0
  0
VERTEX
  8
0
  6
CONTINUOUS
 62
     0
  5
1D9
 10
-199.813004
 20
71.050788
 30
0.0
  0
VERTEX
  8
0
  6
CONTINUOUS
 62
     0
  5
1DA
 10
-199.775201
 20
71.023199
 30
0.0
  0
SEQEND
  8
0
  6
CONTINUOUS
 62
     0
  5
1DB
  0
TEXT
  8
0
  5
1DC
 10
-203.682271
 20
68.226366
 30
0.0
 40
0.18
  1
Threaded Inserts
 72
     5
 11
-201.869572
 21
68.226366
 31
0.0
1001
TCAD
1000
TCW40_TEXT
1002
{
1000
Times New Roman
1070
     0
1070
  1025
1002
}
  0
LINE
  8
0
  5
1DD
 10
-231.479736
 20
77.809873
 30
0.0
 11
-177.853088
 21
77.809873
 31
0.0
  0
LINE
  8
0
  5
1DE
 10
-177.853088
 20
77.809873
 30
0.0
 11
-177.853088
 21
43.809873
 31
0.0
  0
LINE
  8
0
  5
1DF
 10
-231.479736
 20
43.809873
 30
0.0
 11
-231.479736
 21
77.809873
 31
0.0
  0
LINE
  8
0
  5
1E0
 10
-231.479736
 20
43.809873
 30
0.0
 11
-177.853088
 21
43.809873
 31
0.0
  0
DIMENSION
  8
0
  6
CONTINUOUS
 62
     0
  5
200
  2
*D0
 10
-230.580337
 20
71.975786
 30
0.0
 11
-230.580337
 21
74.475786
 31
0.0
 13
-229.665893
 23
76.975786
 33
0.0
 14
-229.665233
 24
71.975786
 34
0.0
 50
90.0
  3
STANDARD
1001
ACAD
1000
DSTYLE
1002
{
1070
     3
1000
<>in
1070
   270
1070
     5
1002
}
  0
LINE
  8
0
  6
CONTINUOUS
 62
     0
  5
201
 10
-199.766204
 20
72.489779
 30
0.0
 11
-201.779572
 21
68.316366
 31
0.0
  0
POLYLINE
  8
0
  6
CONTINUOUS
 62
     0
  5
202
 66
     1
 10
0.0
 20
0.0
 30
0.0
 70
     1
  0
VERTEX
  8
0
  6
CONTINUOUS
 62
     0
  5
203
 10
-199.687993
 20
72.651899
 30
0.0
  0
VERTEX
  8
0
  6
CONTINUOUS
 62
     0
  5
204
 10
-199.78728
 20
72.499946
 30
0.0
  0
VERTEX
  8
0
  6
CONTINUOUS
 62
     0
  5
205
 10
-199.745129
 20
72.479611
 30
0.0
  0
SEQEND
  8
0
  6
CONTINUOUS
 62
     0
  5
206
  0
DIMENSION
  8
0
  6
CONTINUOUS
 62
     0
  5
226
  2
*D1
 10
-202.726176
 20
72.830588
 30
0.0
 11
-202.726176
 21
73.460624
 31
0.0
 13
-202.041111
 23
74.09066
 33
0.0
 14
-202.041111
 24
72.830588
 34
0.0
 50
90.0
  3
STANDARD
1001
ACAD
1000
DSTYLE
1002
{
1070
     3
1000
<>in
1070
   270
1070
     5
1002
}
  0
DIMENSION
  8
0
  6
CONTINUOUS
 62
     0
  5
246
  2
*D2
 10
-202.726176
 20
71.347335
 30
0.0
 11
-202.726176
 21
72.088962
 31
0.0
 13
-202.041111
 23
72.830588
 33
0.0
 14
-202.989963
 24
71.347335
 34
0.0
 50
90.0
  3
STANDARD
1001
ACAD
1000
DSTYLE
1002
{
1070
     3
1000
<>in
1070
   270
1070
     5
1002
}
  0
DIMENSION
  8
0
  6
CONTINUOUS
 62
     0
  5
266
  2
*D3
 10
-202.726176
 20
69.603252
 30
0.0
 11
-202.726176
 21
70.475293
 31
0.0
 13
-202.989963
 23
71.347335
 33
0.0
 14
-202.989963
 24
69.603252
 34
0.0
 50
90.0
  3
STANDARD
1001
ACAD
1000
DSTYLE
1002
{
1070
     3
1000
<>in
1070
   270
1070
     5
1002
}
  0
DIMENSION
  8
0
  6
CONTINUOUS
 62
     0
  5
288
  2
*D4
 10
-202.041111
 20
74.503043
 30
0.0
 11
-200.997222
 21
74.503043
 31
0.0
 70
     1
 13
-202.989963
 23
74.09066
 33
0.0
 14
-202.041111
 24
74.09066
 34
0.0
  3
STANDARD
1001
ACAD
1000
DSTYLE
1002
{
1070
     3
1000
<>in
1070
   270
1070
     5
1002
}
  0
DIMENSION
  8
0
  6
CONTINUOUS
 62
     0
  5
2A8
  2
*D5
 10
-185.21204
 20
52.904643
 30
0.0
 11
-185.706205
 21
52.904643
 31
0.0
 70
     1
 13
-186.20037
 23
53.264034
 33
0.0
 14
-185.21204
 24
53.264034
 34
0.0
  3
STANDARD
1001
ACAD
1000
DSTYLE
1002
{
1070
     3
1000
<>in
1070
   270
1070
     5
1002
}
  0
DIMENSION
  8
0
  6
CONTINUOUS
 62
     0
  5
2C8
  2
*D6
 10
-184.216865
 20
53.264034
 30
0.0
 11
-183.878992
 21
53.444034
 31
0.0
 70
   128
 13
-184.47335
 23
52.264036
 33
0.0
 14
-184.216865
 24
53.264034
 34
0.0
 50
90.0
  3
STANDARD
1001
ACAD
1000
DSTYLE
1002
{
1070
     3
1000
<>in
1070
   270
1070
     5
1002
}
  0
DIMENSION
  8
0
  6
CONTINUOUS
 62
     0
  5
2E8
  2
*D7
 10
-186.861719
 20
54.239429
 30
0.0
 11
-186.525079
 21
54.419429
 31
0.0
 70
   128
 13
-187.193085
 23
51.239429
 33
0.0
 14
-186.856117
 24
54.239429
 34
0.0
 50
90.0
  3
STANDARD
1001
ACAD
1000
DSTYLE
1002
{
1070
     3
1000
<>in
1070
   270
1070
     5
1002
}
  0
DIMENSION
  8
0
  6
CONTINUOUS
 62
     0
  5
308
  2
*D8
 10
-206.064092
 20
54.102812
 30
0.0
 11
-206.064092
 21
52.438261
 31
0.0
 70
   129
 13
-206.536711
 23
51.376046
 33
0.0
 14
-206.536711
 24
54.102812
 34
0.0
 50
90.0
  3
STANDARD
1001
ACAD
1000
DSTYLE
1002
{
1070
     3
1000
<>in
1070
   270
1070
     5
1002
}
  0
LINE
  8
0
  5
309
 10
-197.468734
 20
60.025741
 30
0.0
 11
-197.234414
 21
59.784055
 31
0.0
  0
DIMENSION
  8
0
  6
CONTINUOUS
 62
     0
  5
329
  2
*D9
 10
-185.21204
 20
44.047437
 30
0.0
 11
-196.167584
 21
44.047437
 31
0.0
 70
     1
 13
-207.123127
 23
52.739429
 33
0.0
 14
-185.21204
 24
52.739429
 34
0.0
  3
STANDARD
1001
ACAD
1000
DSTYLE
1002
{
1070
     3
1000
<>in
1070
   270
1070
     5
1002
}
  0
DIMENSION
  8
0
  6
CONTINUOUS
 62
     0
  5
349
  2
*D10
 10
-207.621396
 20
44.085975
 30
0.0
 11
-207.621396
 21
52.73904
 31
0.0
 13
-199.668049
 23
61.392105
 33
0.0
 14
-199.668049
 24
44.085975
 34
0.0
 50
90.0
  3
STANDARD
1001
ACAD
1000
DSTYLE
1002
{
1070
     3
1000
<>in
1070
   270
1070
     5
1002
}
  0
DIMENSION
  8
0
  6
CONTINUOUS
 62
     0
  5
369
  2
*D11
 10
-211.595383
 20
51.515601
 30
0.0
 11
-211.595383
 21
50.658412
 31
0.0
 13
-213.215707
 23
49.801224
 33
0.0
 14
-212.76253
 24
51.515601
 34
0.0
 50
90.0
  3
STANDARD
1001
ACAD
1000
DSTYLE
1002
{
1070
     3
1000
<>in
1070
   270
1070
     5
1002
}
  0
DIMENSION
  8
0
  6
CONTINUOUS
 62
     0
  5
389
  2
*D12
 10
-211.595383
 20
53.881478
 30
0.0
 11
-211.595383
 21
52.698539
 31
0.0
 13
-212.76253
 23
51.515601
 33
0.0
 14
-212.980835
 24
53.881478
 34
0.0
 50
90.0
  3
STANDARD
1001
ACAD
1000
DSTYLE
1002
{
1070
     3
1000
<>in
1070
   270
1070
     5
1002
}
  0
DIMENSION
  8
0
  6
CONTINUOUS
 62
     0
  5
3A9
  2
*D13
 10
-216.529351
 20
51.616995
 30
0.0
 11
-216.529351
 21
50.709109
 31
0.0
 13
-214.865329
 23
49.801224
 33
0.0
 14
-215.376083
 24
51.616995
 34
0.0
 50
90.0
  3
STANDARD
1001
ACAD
1000
DSTYLE
1002
{
1070
     3
1000
<>in
1070
   270
1070
     5
1002
}
  0
DIMENSION
  8
0
  6
CONTINUOUS
 62
     0
  5
3C9
  2
*D14
 10
-216.529351
 20
53.982873
 30
0.0
 11
-216.529351
 21
52.799934
 31
0.0
 13
-215.435225
 23
51.616995
 33
0.0
 14
-214.991661
 24
53.982873
 34
0.0
 50
90.0
  3
STANDARD
1001
ACAD
1000
DSTYLE
1002
{
1070
     3
1000
<>in
1070
   270
1070
     5
1002
}
  0
DIMENSION
  8
0
  6
CONTINUOUS
 62
     0
  5
3E9
  2
*D15
 10
-223.88787
 20
51.875388
 30
0.0
 11
-225.463144
 21
51.875388
 31
0.0
 13
-227.038418
 23
52.206528
 33
0.0
 14
-223.88787
 24
52.1474
 34
0.0
  3
STANDARD
1001
ACAD
1000
DSTYLE
1002
{
1070
     3
1000
<>in
1070
   270
1070
     5
1002
}
  0
DIMENSION
  8
0
  6
CONTINUOUS
 62
     0
  5
405
  2
*D16
 10
-223.105929
 20
51.875388
 30
0.0
 11
-223.496899
 21
51.875388
 31
0.0
 70
   128
 13
-223.88787
 23
52.1474
 33
0.0
 14
-223.105929
 24
52.15678
 34
0.0
  3
STANDARD
1001
ACAD
1000
DSTYLE
1002
{
1070
     3
1000
<>in
1070
   270
1070
     5
1002
}
  0
DIMENSION
  8
0
  6
CONTINUOUS
 62
     0
  5
427
  2
*D17
 10
-222.33133
 20
51.875388
 30
0.0
 11
-222.71863
 21
51.875388
 31
0.0
 70
   128
 13
-223.105929
 23
52.15678
 33
0.0
 14
-222.33133
 24
52.1474
 34
0.0
  3
STANDARD
1001
ACAD
1000
DSTYLE
1002
{
1070
     3
1000
<>in
1070
   270
1070
     5
1002
}
  0
DIMENSION
  8
0
  6
CONTINUOUS
 62
     0
  5
443
  2
*D18
 10
-221.527363
 20
51.875388
 30
0.0
 11
-221.929347
 21
51.866009
 31
0.0
 70
   128
 13
-222.33133
 23
52.1474
 33
0.0
 14
-221.527363
 24
52.15678
 34
0.0
  3
STANDARD
1001
ACAD
1000
DSTYLE
1002
{
1070
     3
1000
<>in
1070
   270
1070
     5
1002
}
  0
DIMENSION
  8
0
  6
CONTINUOUS
 62
     0
  5
463
  2
*D19
 10
-218.431794
 20
51.875388
 30
0.0
 11
-219.979579
 21
51.875388
 31
0.0
 13
-221.527363
 23
52.15678
 33
0.0
 14
-218.431794
 24
52.206528
 34
0.0
  3
STANDARD
1001
ACAD
1000
DSTYLE
1002
{
1070
     3
1000
<>in
1070
   270
1070
     5
1002
}
  0
DIMENSION
  8
0
  6
CONTINUOUS
 62
     0
  5
483
  2
*D20
 10
-218.408311
 20
49.361622
 30
0.0
 11
-222.723365
 21
49.361622
 31
0.0
 70
     1
 13
-227.038418
 23
49.874459
 33
0.0
 14
-218.408311
 24
49.874459
 34
0.0
  3
STANDARD
1001
ACAD
1000
DSTYLE
1002
{
1070
     3
1000
<>in
1070
   270
1070
     5
1002
}
  0
DIMENSION
  8
0
  6
CONTINUOUS
 62
     0
  5
4A3
  2
*D21
 10
-217.982852
 20
49.874459
 30
0.0
 11
-217.982852
 21
50.55516
 31
0.0
 13
-218.408311
 23
51.235861
 33
0.0
 14
-218.408311
 24
49.874459
 34
0.0
 50
90.0
  3
STANDARD
1001
ACAD
1000
DSTYLE
1002
{
1070
     3
1000
<>in
1070
   270
1070
     5
1002
}
  0
DIMENSION
  8
0
  6
CONTINUOUS
 62
     0
  5
4C5
  2
*D22
 10
-227.376296
 20
49.874459
 30
0.0
 11
-226.692407
 21
49.514459
 31
0.0
 13
-227.038418
 23
50.543424
 33
0.0
 14
-227.038418
 24
49.874459
 34
0.0
 50
90.0
  3
STANDARD
1001
ACAD
1000
DSTYLE
1002
{
1070
     3
1000
<>in
1070
   270
1070
     5
1002
}
  0
DIMENSION
  8
0
  6
CONTINUOUS
 62
     0
  5
4E5
  2
*D23
 10
-216.529351
 20
56.081209
 30
0.0
 11
-216.529351
 21
55.032041
 31
0.0
 13
-214.991661
 23
53.982873
 33
0.0
 14
-215.23874
 24
56.081209
 34
0.0
 50
90.0
  3
STANDARD
1001
ACAD
1000
DSTYLE
1002
{
1070
     3
1000
<>in
1070
   270
1070
     5
1002
}
  0
LINE
  8
0
  6
DASHED2
  5
4E6
 10
-228.742577
 20
52.449688
 30
0.0
 11
-228.742577
 21
52.395812
 31
0.0
  0
LINE
  8
0
  5
4E7
 10
-228.619798
 20
52.443322
 30
0.0
 11
-228.619798
 21
52.745259
 31
0.0
  0
DIMENSION
  8
0
  6
CONTINUOUS
 62
     0
  5
503
  2
*D24
 10
-230.054876
 20
52.761899
 30
0.0
 11
-229.656073
 21
53.108519
 31
0.0
 70
   129
 13
-229.864237
 23
52.206528
 33
0.0
 14
-229.864237
 24
52.761899
 34
0.0
 50
90.0
  3
STANDARD
1001
ACAD
1000
DSTYLE
1002
{
1070
     3
1000
<>in
1070
   270
1070
     5
1002
}
  0
DIMENSION
  8
0
  6
CONTINUOUS
 62
     0
  5
525
  2
*D25
 10
-228.414997
 20
52.610056
 30
0.0
 11
-227.866558
 21
52.970056
 31
0.0
 70
     1
 13
-228.513667
 23
52.206528
 33
0.0
 14
-228.513667
 24
52.610056
 34
0.0
 50
90.0
  3
STANDARD
1001
ACAD
1000
DSTYLE
1002
{
1070
     3
1000
<>in
1070
   270
1070
     5
1002
}
  0
POLYLINE
  8
0
  5
526
 66
     1
 10
0.0
 20
0.0
 30
0.0
 70
     1
  0
VERTEX
  8
0
  5
527
 10
-231.479736
 20
43.809873
 30
0.0
  0
VERTEX
  8
0
  5
528
 10
-211.714312
 20
43.809873
 30
0.0
  0
VERTEX
  8
0
  5
529
 10
-211.714312
 20
47.511217
 30
0.0
  0
VERTEX
  8
0
  5
52A
 10
-231.479736
 20
47.511217
 30
0.0
  0
SEQEND
  8
0
  5
52B
  0
DIMENSION
  8
0
  6
CONTINUOUS
 62
     0
  5
54E
  2
*D26
 10
-188.442095
 20
76.212086
 30
0.0
 11
-188.779968
 21
76.032086
 31
0.0
 70
   128
 13
-188.509215
 23
77.225786
 33
0.0
 14
-188.342761
 24
76.212086
 34
0.0
 50
90.0
  3
STANDARD
1001
ACAD
1000
DSTYLE
1002
{
1070
     3
1000
<>in
1070
   270
1070
     5
1002
}
  0
DIMENSION
  8
0
  6
CONTINUOUS
 62
     0
  5
56E
  2
*D27
 10
-203.260761
 20
75.951037
 30
0.0
 11
-203.666313
 21
75.731197
 31
0.0
 70
   128
 13
-203.260761
 23
77.2172
 33
0.0
 14
-203.260761
 24
75.951037
 34
0.0
 50
90.0
  3
STANDARD
1001
ACAD
1000
DSTYLE
1002
{
1070
     3
1000
<>in
1070
   270
1070
     5
1002
}
  0
DIMENSION
  8
0
  6
CONTINUOUS
 62
     0
  5
590
  2
*D28
 10
-213.451692
 20
77.225786
 30
0.0
 11
-213.789565
 21
76.513999
 31
0.0
 70
   129
 13
-213.309039
 23
76.975786
 33
0.0
 14
-213.309039
 24
77.225786
 34
0.0
 50
90.0
  3
STANDARD
1001
ACAD
1000
DSTYLE
1002
{
1070
     3
1000
<>in
1070
   270
1070
     5
1002
}
  0
DIMENSION
  8
0
  6
CONTINUOUS
 62
     0
  5
59B
  2
*D29
 10
-187.982081
 20
76.975786
 30
0.0
 11
-186.666648
 21
76.619929
 31
0.0
 70
     2
 13
-188.12088
 23
76.7443
 33
0.0
 14
-181.833727
 24
74.57946
 34
0.0
 15
-229.665893
 25
76.975786
 35
0.0
 16
-186.689553
 26
76.503003
 36
0.0
  3
STANDARD
1001
ACAD
1000
DSTYLE
1002
{
1070
   179
1070
     0
1070
   271
1070
     0
1070
   272
1070
     0
1002
}
  0
DIMENSION
  8
0
  6
CONTINUOUS
 62
     0
  5
5BD
  2
*D30
 10
-182.254395
 20
74.129397
 30
0.0
 11
-182.987764
 21
73.789011
 31
0.0
 70
     1
 13
-181.833727
 23
74.57946
 33
0.0
 14
-182.016859
 24
74.047607
 34
0.0
 50
-109.000031
  3
STANDARD
1001
ACAD
1000
DSTYLE
1002
{
1070
     3
1000
<>in
1070
   270
1070
     5
1002
}
  0
DIMENSION
  8
0
  6
CONTINUOUS
 62
     0
  5
5DD
  2
*D31
 10
-185.21204
 20
49.622603
 30
0.0
 11
-188.975498
 21
49.622603
 31
0.0
 13
-192.738955
 23
52.739429
 33
0.0
 14
-185.21204
 24
52.724643
 34
0.0
  3
STANDARD
1001
ACAD
1000
DSTYLE
1002
{
1070
     3
1000
<>in
1070
   270
1070
     5
1002
}
  0
LINE
  8
0
  5
5DE
 10
-231.479736
 20
46.273943
 30
0.0
 11
-211.714312
 21
46.273943
 31
0.0
  0
TEXT
  8
0
  5
5DF
 10
-230.294736
 20
44.265634
 30
0.0
 40
0.2
  1
express written consent of the author.
 72
     5
 11
-225.781068
 21
44.265634
 31
0.0
1001
TCAD
1000
TCW40_TEXT
1002
{
1000
Times New Roman
1070
     0
1070
  1025
1002
}
  0
TEXT
  8
0
  5
5E0
 10
-230.288538
 20
44.625005
 30
0.0
 40
0.2
  1
personal use only.  Any other use requires the
 72
     5
 11
-224.780013
 21
44.625005
 31
0.0
1001
TCAD
1000
TCW40_TEXT
1002
{
1000
Times New Roman
1070
     0
1070
  1025
1002
}
  0
TEXT
  8
0
  5
5E1
 10
-230.294736
 20
44.928611
 30
0.0
 40
0.2
  1
You may download and print this file for your own
 72
     5
 11
-224.133655
 21
44.928611
 31
0.0
1001
TCAD
1000
TCW40_TEXT
1002
{
1000
Times New Roman
1070
     0
1070
  1025
1002
}
  0
TEXT
  8
0
  5
5E2
 10
-230.294736
 20
45.257001
 30
0.0
 40
0.2
  1
All rights reserved.
 72
     5
 11
-227.979334
 21
45.257001
 31
0.0
1001
TCAD
1000
TCW40_TEXT
1002
{
1000
Times New Roman
1070
     0
1070
  1025
1002
}
  0
TEXT
  8
0
  5
5E3
 10
-230.289163
 20
45.567116
 30
0.0
 40
0.2
  1
Copyright 2003, Rodrigo Mateus
 72
     5
 11
-226.29269
 21
45.567116
 31
0.0
1001
TCAD
1000
TCW40_TEXT
1002
{
1000
Times New Roman
1070
     0
1070
  1025
1002
}
  0
TEXT
  8
0
  5
5E4
 10
-230.850518
 20
46.627539
 30
0.0
 40
0.4
  1
Acoustic Bass by Rodrigo Mateus
 72
     5
 11
-222.623886
 21
46.627539
 31
0.0
1001
TCAD
1000
TCW40_TEXT
1002
{
1000
Times New Roman
1070
     0
1070
  1025
1002
}
  0
TEXT
  8
0
  5
5E5
 10
-180.783851
 20
50.418759
 30
0.0
 40
0.2
  1
Fretting Guide
 72
     5
 11
-179.019889
 21
50.418759
 31
0.0
1001
TCAD
1000
TCW40_TEXT
1002
{
1000
Times New Roman
1070
     0
1070
  1025
1002
}
  0
TEXT
  8
0
  5
5E6
 10
-215.476454
 20
48.582286
 30
0.0
 40
0.2
  1
Headstock Template
 72
     5
 11
-212.994238
 21
48.582286
 31
0.0
1001
TCAD
1000
TCW40_TEXT
1002
{
1000
Times New Roman
1070
     0
1070
  1025
1002
}
  0
DIMENSION
  8
0
  6
CONTINUOUS
 62
     0
  5
5FB
  2
*D32
 10
-202.928345
 20
60.481599
 30
0.0
 11
-197.311866
 21
52.739464
 31
0.0
 70
     2
 13
-192.375673
 23
57.574721
 33
0.0
 14
-202.930012
 24
44.99655
 34
0.0
 15
-192.377877
 25
47.905964
 35
0.0
 16
-197.274929
 26
52.991546
 36
0.0
  3
STANDARD
1001
ACAD
1000
DSTYLE
1002
{
1070
   179
1070
     0
1070
   271
1070
     0
1070
   272
1070
     0
1002
}
  0
DIMENSION
  8
0
  6
CONTINUOUS
 62
     0
  5
61D
  2
*D33
 10
-206.536711
 20
53.212267
 30
0.0
 11
-205.298674
 21
53.212267
 31
0.0
 70
   129
 13
-207.123127
 23
52.739429
 33
0.0
 14
-206.536711
 24
52.739429
 34
0.0
  3
STANDARD
1001
ACAD
1000
DSTYLE
1002
{
1070
     3
1000
<>in
1070
   270
1070
     5
1002
}
  0
DIMENSION
  8
0
  6
CONTINUOUS
 62
     0
  5
63D
  2
*D34
 10
-187.193085
 20
51.976098
 30
0.0
 11
-187.52116
 21
51.976098
 31
0.0
 70
   128
 13
-185.200372
 23
52.739429
 33
0.0
 14
-187.193085
 24
52.739429
 34
0.0
  3
STANDARD
1001
ACAD
1000
DSTYLE
1002
{
1070
     3
1000
<>in
1070
   270
1070
     5
1002
}
  0
LINE
  8
0
  5
63E
 10
-185.299732
 20
51.239429
 30
0.0
 11
-185.297105
 21
51.239429
 31
0.0
  0
LINE
  8
0
  5
63F
 10
-185.380457
 20
54.239429
 30
0.0
 11
-187.193085
 21
54.239429
 31
0.0
  0
ARC
  8
0
  5
640
 10
-218.863595
 20
62.843885
 30
0.0
 40
10.725002
 50
165.995194
 51
178.71806
  0
ARC
  8
0
  5
641
 10
-209.574253
 20
59.071248
 30
0.0
 40
20.699274
 50
155.809661
 51
162.097574
  0
ARC
  8
0
  5
642
 10
-221.418648
 20
63.946001
 30
0.0
 40
7.907784
 50
117.077844
 51
152.890656
  0
ARC
  8
0
  5
643
 10
-222.22189
 20
65.503942
 30
0.0
 40
6.154978
 50
71.892836
 51
117.022505
  0
ARC
  8
0
  5
644
 10
-223.230898
 20
62.9475
 30
0.0
 40
8.899919
 50
41.801157
 51
70.843139
  0
ARC
  8
0
  5
645
 10
-214.09073
 20
71.044067
 30
0.0
 40
3.310978
 50
-139.203832
 51
-87.068615
  0
ARC
  8
0
  5
646
 10
-216.727865
 20
80.525959
 30
0.0
 40
13.093948
 50
-77.564776
 51
-67.832221
  0
ARC
  8
0
  5
647
 10
-211.024608
 20
66.24269
 30
0.0
 40
2.287946
 50
44.768246
 51
109.561555
  0
ARC
  8
0
  5
648
 10
-212.194449
 20
64.752288
 30
0.0
 40
4.174545
 50
10.752119
 51
47.924852
  0
ARC
  8
0
  5
649
 10
-218.899043
 20
63.09994
 30
0.0
 40
11.075913
 50
5.986731
 51
12.665739
  0
ARC
  8
0
  5
64A
 10
-218.863595
 20
62.843885
 30
0.0
 40
10.475002
 50
165.995194
 51
171.187039
  0
ARC
  8
0
  5
64B
 10
-209.574253
 20
59.071248
 30
0.0
 40
20.449274
 50
155.809661
 51
162.097574
  0
ARC
  8
0
  5
64C
 10
-221.418648
 20
63.946001
 30
0.0
 40
7.657784
 50
117.077844
 51
152.890656
  0
ARC
  8
0
  5
64D
 10
-222.22189
 20
65.503942
 30
0.0
 40
5.904978
 50
71.892836
 51
117.022505
  0
ARC
  8
0
  5
64E
 10
-223.230898
 20
62.9475
 30
0.0
 40
8.649919
 50
41.801157
 51
70.843139
  0
ARC
  8
0
  5
64F
 10
-214.102343
 20
71.028182
 30
0.0
 40
3.54181
 50
-139.275617
 51
-85.986337
  0
ARC
  8
0
  5
650
 10
-216.727865
 20
80.525959
 30
0.0
 40
13.343948
 50
-77.564776
 51
-67.832221
  0
ARC
  8
0
  5
651
 10
-211.024608
 20
66.24269
 30
0.0
 40
2.037946
 50
44.768246
 51
109.561555
  0
ARC
  8
0
  5
652
 10
-212.194449
 20
64.752288
 30
0.0
 40
3.924545
 50
10.752119
 51
47.924852
  0
ARC
  8
0
  5
653
 10
-218.899043
 20
63.09994
 30
0.0
 40
10.825913
 50
7.893425
 51
12.665739
  0
LINE
  8
0
  6
CONTINUOUS
 62
     0
  5
654
 10
-228.866833
 20
65.460554
 30
0.0
 11
-228.010561
 21
65.896615
 31
0.0
  0
POLYLINE
  8
0
  6
CONTINUOUS
 62
     0
  5
655
 66
     1
 10
0.0
 20
0.0
 30
0.0
 70
     1
  0
VERTEX
  8
0
  6
CONTINUOUS
 62
     0
  5
656
 10
-229.027232
 20
65.37887
 30
0.0
  0
VERTEX
  8
0
  6
CONTINUOUS
 62
     0
  5
657
 10
-228.856214
 20
65.439702
 30
0.0
  0
VERTEX
  8
0
  6
CONTINUOUS
 62
     0
  5
658
 10
-228.877452
 20
65.481406
 30
0.0
  0
SEQEND
  8
0
  6
CONTINUOUS
 62
     0
  5
659
  0
TEXT
  8
0
  5
65A
 10
-227.920561
 20
65.746615
 30
0.0
 40
0.18
  1
Linings
 72
     5
 11
-227.092783
 21
65.746615
 31
0.0
1001
TCAD
1000
TCW40_TEXT
1002
{
1000
Times New Roman
1070
     0
1070
  1025
1002
}
  0
ARC
  8
0
  5
65B
 10
-196.320829
 20
52.497697
 30
0.0
 40
10.725002
 50
165.995194
 51
178.71806
  0
ARC
  8
0
  5
65C
 10
-187.031487
 20
48.725061
 30
0.0
 40
20.699274
 50
155.809661
 51
162.097574
  0
ARC
  8
0
  5
65D
 10
-198.875882
 20
53.599814
 30
0.0
 40
7.907784
 50
117.077844
 51
152.890656
  0
ARC
  8
0
  5
65E
 10
-199.679124
 20
55.157755
 30
0.0
 40
6.154978
 50
71.892836
 51
117.022505
  0
ARC
  8
0
  5
65F
 10
-200.688132
 20
52.601312
 30
0.0
 40
8.899919
 50
41.801157
 51
70.843139
  0
ARC
  8
0
  5
660
 10
-191.547964
 20
60.69788
 30
0.0
 40
3.310978
 50
-139.203832
 51
-87.068615
  0
ARC
  8
0
  5
661
 10
-194.185099
 20
70.179771
 30
0.0
 40
13.093948
 50
-77.564776
 51
-67.832221
  0
ARC
  8
0
  5
662
 10
-188.481842
 20
55.896502
 30
0.0
 40
2.287946
 50
44.768246
 51
109.561555
  0
ARC
  8
0
  5
663
 10
-189.651683
 20
54.4061
 30
0.0
 40
4.174545
 50
10.752119
 51
47.924852
  0
ARC
  8
0
  5
664
 10
-196.356277
 20
52.753753
 30
0.0
 40
11.075913
 50
2.640624
 51
12.665739
  0
ARC
  8
0
  5
665
 10
-189.651683
 20
51.072757
 30
0.0
 40
4.174545
 50
-47.924852
 51
-10.752119
  0
ARC
  8
0
  5
666
 10
-196.356277
 20
52.725105
 30
0.0
 40
11.075913
 50
-12.665739
 51
-2.385802
  0
ARC
  8
0
  5
667
 10
-188.481842
 20
49.582355
 30
0.0
 40
2.287946
 50
-109.561555
 51
-44.768246
  0
ARC
  8
0
  5
668
 10
-194.185099
 20
35.299086
 30
0.0
 40
13.093948
 50
67.832221
 51
77.564776
  0
ARC
  8
0
  5
669
 10
-191.547964
 20
44.780978
 30
0.0
 40
3.310978
 50
87.068615
 51
139.203832
  0
ARC
  8
0
  5
66A
 10
-200.688132
 20
52.877545
 30
0.0
 40
8.899919
 50
-70.843139
 51
-41.801157
  0
ARC
  8
0
  5
66B
 10
-199.679124
 20
50.321103
 30
0.0
 40
6.154978
 50
-117.022505
 51
-71.892836
  0
ARC
  8
0
  5
66C
 10
-198.875882
 20
51.879044
 30
0.0
 40
7.907784
 50
-152.890656
 51
-117.077844
  0
ARC
  8
0
  5
66D
 10
-187.031487
 20
56.753797
 30
0.0
 40
20.699274
 50
-162.097574
 51
-155.809661
  0
ARC
  8
0
  5
66E
 10
-196.320829
 20
52.98116
 30
0.0
 40
10.725002
 50
-178.71806
 51
-165.995194
  0
ARC
  8
0
  5
66F
 10
-187.031487
 20
48.725061
 30
0.0
 40
20.449274
 50
155.809661
 51
162.097574
  0
ARC
  8
0
  5
670
 10
-196.320829
 20
52.497697
 30
0.0
 40
10.475002
 50
165.995194
 51
171.185673
  0
ARC
  8
0
  5
671
 10
-196.320829
 20
52.98116
 30
0.0
 40
10.475002
 50
-171.185673
 51
-165.995194
  0
ARC
  8
0
  5
672
 10
-198.875882
 20
53.599814
 30
0.0
 40
7.657784
 50
117.077844
 51
152.890656
  0
ARC
  8
0
  5
673
 10
-199.679124
 20
55.157755
 30
0.0
 40
5.904978
 50
71.892836
 51
117.022505
  0
ARC
  8
0
  5
674
 10
-200.688132
 20
52.601312
 30
0.0
 40
8.649919
 50
41.801157
 51
70.843139
  0
ARC
  8
0
  5
675
 10
-191.559578
 20
60.681994
 30
0.0
 40
3.54181
 50
-139.275617
 51
-85.986337
  0
ARC
  8
0
  5
676
 10
-194.185099
 20
70.179771
 30
0.0
 40
13.343948
 50
-77.564776
 51
-67.832221
  0
ARC
  8
0
  5
677
 10
-188.481842
 20
55.896502
 30
0.0
 40
2.037946
 50
44.768246
 51
109.561555
  0
ARC
  8
0
  5
678
 10
-189.651683
 20
54.4061
 30
0.0
 40
3.924545
 50
10.752119
 51
47.924852
  0
ARC
  8
0
  5
679
 10
-196.356277
 20
52.753753
 30
0.0
 40
10.825913
 50
7.887782
 51
12.665739
  0
ARC
  8
0
  5
67A
 10
-189.651683
 20
51.072757
 30
0.0
 40
3.924545
 50
-47.924852
 51
-10.752119
  0
ARC
  8
0
  5
67B
 10
-196.356277
 20
52.725105
 30
0.0
 40
10.825913
 50
-12.665739
 51
-7.887782
  0
ARC
  8
0
  5
67C
 10
-188.481842
 20
49.582355
 30
0.0
 40
2.037946
 50
-109.561555
 51
-44.768246
  0
ARC
  8
0
  5
67D
 10
-194.185099
 20
35.299086
 30
0.0
 40
13.343948
 50
67.832221
 51
77.564776
  0
ARC
  8
0
  5
67E
 10
-191.559578
 20
44.796863
 30
0.0
 40
3.54181
 50
85.986337
 51
139.275617
  0
ARC
  8
0
  5
67F
 10
-200.688132
 20
52.877545
 30
0.0
 40
8.649919
 50
-70.843139
 51
-41.801157
  0
ARC
  8
0
  5
680
 10
-199.679124
 20
50.321103
 30
0.0
 40
5.904978
 50
-117.022505
 51
-71.892836
  0
ARC
  8
0
  5
681
 10
-198.875882
 20
51.879044
 30
0.0
 40
7.657784
 50
-152.890656
 51
-117.077844
  0
ARC
  8
0
  5
682
 10
-187.031487
 20
56.753797
 30
0.0
 40
20.449274
 50
-162.097574
 51
-155.809661
  0
LINE
  8
0
  6
CONTINUOUS
 62
     0
  5
683
 10
-205.559334
 20
57.049825
 30
0.0
 11
-204.585712
 21
57.468584
 31
0.0
  0
POLYLINE
  8
0
  6
CONTINUOUS
 62
     0
  5
684
 66
     1
 10
0.0
 20
0.0
 30
0.0
 70
     1
  0
VERTEX
  8
0
  6
CONTINUOUS
 62
     0
  5
685
 10
-205.724688
 20
56.978705
 30
0.0
  0
VERTEX
  8
0
  6
CONTINUOUS
 62
     0
  5
686
 10
-205.550088
 20
57.028329
 30
0.0
  0
VERTEX
  8
0
  6
CONTINUOUS
 62
     0
  5
687
 10
-205.568579
 20
57.071321
 30
0.0
  0
SEQEND
  8
0
  6
CONTINUOUS
 62
     0
  5
688
  0
TEXT
  8
0
  5
689
 10
-204.495712
 20
57.318584
 30
0.0
 40
0.18
  1
Linings
 72
     5
 11
-203.667934
 21
57.318584
 31
0.0
1001
TCAD
1000
TCW40_TEXT
1002
{
1000
Times New Roman
1070
     0
1070
  1025
1002
}
  0
TEXT
  8
0
  5
68A
 10
-204.721214
 20
67.278183
 30
0.0
 40
0.25
  1
Notes:
 72
     5
 11
-203.738887
 21
67.278183
 31
0.0
1001
TCAD
1000
TCW40_TEXT
1002
{
1000
Times New Roman
1070
     0
1070
  1025
1002
}
  0
TEXT
  8
0
  5
68B
 10
-204.705575
 20
66.985316
 30
0.0
 40
0.2
  1
Back, Top, and sides are 0.11".
 72
     5
 11
-200.946609
 21
66.985316
 31
0.0
1001
TCAD
1000
TCW40_TEXT
1002
{
1000
Times New Roman
1070
     0
1070
  1025
1002
}
  0
TEXT
  8
0
  5
68C
 10
-204.705575
 20
66.657046
 30
0.0
 40
0.2
  1
Braces are 3/8" wide, 3/4" high.
 72
     5
 11
-200.85725
 21
66.657046
 31
0.0
1001
TCAD
1000
TCW40_TEXT
1002
{
1000
Times New Roman
1070
     0
1070
  1025
1002
}
  0
TEXT
  8
0
  5
68D
 10
-204.705575
 20
66.344408
 30
0.0
 40
0.2
  1
Top and back are flat and parallel.
 72
     5
 11
-200.585645
 21
66.344408
 31
0.0
1001
TCAD
1000
TCW40_TEXT
1002
{
1000
Times New Roman
1070
     0
1070
  1025
1002
}
  0
ENDSEC
  0
EOF
